Невеста моего жениха (Владимир Потапов) [2013, мелодрама, HDTVRip]

Ответить на тему
 
Автор Сообщение

user ®

Стаж: 7 лет 7 месяцев

Сообщений: 20008

Пост Пост: #1 от 17-Июл-2013 11:16

[Цитировать]

Невеста моего жениха
Жанр: мелодрама
Год выпуска: 2013
Продолжительность: 01:33:22
Режиссёр: Владимир Потапов
В ролях: Татьяна Федоровская, Александр Константинов, Мария Кононова, Людмила Гаврилова, Владимир Жеребцов, Екатерина Травова, Евгения Крылова, Юрий Мосейчук, Наталья Унгард, Ирина Померанцева, Сергей Серов, Сергей Погосян, Рамиль Мубинов, Ярослав Потапов, Ольга Аничкова, Василий Фролов, Армен Филиппов, Элеонора Ильченко, Артур Псакин
Описание: Юля молода, красива и успешна в карьере, но личного счастья в ее жизни давно нет. Три года назад она отказалась уехать в провинцию со своим женихом Вадимом, предпочтя выгодную работу в столице, но найти жениху достойную замену так и не смогла. После очередной неудачной попытки у Юли происходит переоценка ценностей, и девушка решает вернуться к проверенному временем и бесконечно любящему ее Вадиму. Однако, героиню ждут плохие новости: молодой человек встретил свою любовь и вот-вот женится на другой. Привыкшая побеждать, Юля решает не сдаваться без боя: она бросает всё и едет в сибирское захолустье в полной решимости вернуть «лучшего мужчину своей жизни»...
Доп. информация:
Релиз от
Семпл
Качество видео: HDTVRip
Формат видео: AVI
Видео: 720x400 (1.80:1), 25 fps, XviD build 50 ~1893 kbps avg, 0.26 bit/pixel
Аудио: 48 kHz, AC3 Dolby Digital, 2/0 (L,R) ch, ~192.00 kbps avg

MI

General
Complete name : Nevesta.moego.zhenikha.2013.XviD.HDTVRip.Files-x.avi
Format : AVI
Format/Info : Audio Video Interleave
File size : 1.37 GiB
Duration : 1h 33mn
Overall bit rate : 2 095 Kbps
Writing application : VirtualDubMod 1.5.10.3 (build 2550/release)
Writing library : VirtualDubMod build 2550/release
Video
ID : 0
Format : MPEG-4 Visual
Format profile : Advanced Simple@L5
Format settings, BVOP : 1
Format settings, QPel : No
Format settings, GMC : No warppoints
Format settings, Matrix : Default (H.263)
Codec ID : XVID
Codec ID/Hint : XviD
Duration : 1h 33mn
Bit rate : 1 894 Kbps
Width : 720 pixels
Height : 400 pixels
Display aspect ratio : 16:9
Frame rate : 25.000 fps
Color space : YUV
Chroma subsampling : 4:2:0
Bit depth : 8 bits
Scan type : Progressive
Compression mode : Lossy
Bits/(Pixel*Frame) : 0.263
Stream size : 1.24 GiB (90%)
Writing library : XviD 1.2.1 (UTC 2008-12-04)
Audio
ID : 1
Format : AC-3
Format/Info : Audio Coding 3
Mode extension : CM (complete main)
Format settings, Endianness : Big
Codec ID : 2000
Duration : 1h 33mn
Bit rate mode : Constant
Bit rate : 192 Kbps
Channel(s) : 2 channels
Channel positions : Front: L R
Sampling rate : 48.0 KHz
Bit depth : 16 bits
Compression mode : Lossy
Stream size : 128 MiB (9%)
Alignment : Split accross interleaves
Interleave, duration : 40 ms (1.00 video frame)
Interleave, preload duration : 500 ms

Скриншот c названием фильма

Скриншоты

Скачать

Скачать торрент!

Как скачивать? · Что такое торрент? · Рейтинг и ограничения

Сайт не распространяет и не хранит электронные версии произведений, а лишь предоставляет доступ к создаваемому пользователями каталогу ссылок на торрент-файлы, которые содержат только списки хеш-сумм

[Профиль] [ЛС]
Показать сообщения:    
Ответить на тему

Текущее время: Сегодня 20:15

Часовой пояс: GMT + 4



Вы не можете начинать темы
Вы не можете отвечать на сообщения
Вы не можете редактировать свои сообщения
Вы не можете удалять свои сообщения
Вы не можете голосовать в опросах
Вы не можете прикреплять файлы к сообщениям
Вы не можете скачивать файлы