Брат (Алексей Балабанов) [1997, драма, боевик, DVB]

Ответить на тему
 
Автор Сообщение

user ®

Стаж: 7 лет 7 месяцев

Сообщений: 20008

Пост Пост: #1 от 17-Июл-2013 11:16

[Цитировать]

Брат- Жанр: драма, боевик
Год выпуска: 1997
Продолжительность: 01:34:28-Режиссёр: Алексей Балабанов-В ролях: Сергей Бодров-младший, Виктор Сухоруков (озвучание - Алексей Полуян), Светлана Письмиченко, Мария Милютина, Юрий Кузнецов, Вячеслав Бутусов, Ирина Ракшина, Сергей Мурзин (озвучание - Александр Строев), Анатолий Журавлёв, Игорь Шибанов, Андрей Федорцов, Сергей Дебижев (озвучание - Валерий Кухарешин), Алексей Севостьянов, Андрей Краско, Алексей Полуян, Игорь Лифанов (озвучание - Александр Баширов), Сергей Чиграков, Настя Полева, Ринат Ибрагимов, Владимир Ермилов, Анатолий Горин, Денис Кириллов (озвучание - Александр Половцев), Виталий Матвеев, Василина Стрельникова, Сергей Астахов, Артур Арутюнян, Константин Анисимов (озвучание - Виктор Бычков), Сергей Исавнин, Татьяна Захарова (озвучание - Нина Усатова), Юрий Макусинский, Владимир Лабецкий, Лидия Доротенко-Описание: Демобилизованный из армии Данила Багров возвращается в родной город. Скучная, однообразная жизнь провинции не может устроить крепкого русского парня, и он решает поехать в Питер, испытать себя. Тем более, что там, по слухам уже давно процветает его старший брат. Но «новая русская» жизнь северной столицы оказывается слишком неожиданной, а родной брат Данилы зарабатывает на жизнь не совсем обычным способом...-Доп. информация: В раздаче представлена версия с самой (на мой взгляд) естественной цветопередачей, нормальной яркостью и контрастом, лучшей на данный момент чёткостью изображения.
Другие релизы на трекере имеют либо коричневый оттенок, либо завышенный контраст (с потерей детализации изображения). Запись с телеканала "Россия", реклама вырезана. За DVB благодарим Alexander_Kozlov
-Качество видео: DVB
Формат видео: MPEG-PS
Видео: 720x576@768x576 (16:9), 25 fps, 5324 kbps avg, 0.51 bit/pixel
Аудио: MPEG Audio, 48.0 KHz, 2 channels (L, R), 256 kbps
-

MediaInfo

Complete name : D:\Брат (DVB).mpg
Format : MPEG-PS
File size : 3.76 GiB
Duration : 1h 34mn
Overall bit rate : 5 693 Kbps
Writing library : (c) 1998-2010 Womble Multimedia, Inc. / MPEG Video Wizard DVD 5.0.0.114 (01/2010) / Nov 13 2010
Video
ID : 224 (0xE0)
Format : MPEG Video
Format version : Version 2
Format profile : Main@Main
Format settings, BVOP : Yes
Format settings, Matrix : Custom
Duration : 1h 34mn
Bit rate mode : Variable
Bit rate : 5 324 Kbps
Maximum bit rate : 15.0 Mbps
Width : 720 pixels
Height : 576 pixels
Display aspect ratio : 4:3
Frame rate : 25.000 fps
Standard : PAL
Color space : YUV
Chroma subsampling : 4:2:0
Bit depth : 8 bits
Scan type : Interlaced
Scan order : Top Field First
Compression mode : Lossy
Bits/(Pixel*Frame) : 0.514
Stream size : 3.51 GiB (94%)
Writing library : (c) 1998-2010 Womble Multimedia, Inc. / MPEG Video Wizard DVD 5.0.0.114 (01/2010) / Nov 13 2010
Audio
ID : 192 (0xC0)
Format : MPEG Audio
Format version : Version 1
Format profile : Layer 2
Duration : 1h 34mn
Bit rate mode : Constant
Bit rate : 256 Kbps
Channel(s) : 2 channels
Sampling rate : 48.0 KHz
Compression mode : Lossy
Stream size : 173 MiB (4%)

Скриншоты

Скачать

Скачать торрент!

Как скачивать? · Что такое торрент? · Рейтинг и ограничения

Сайт не распространяет и не хранит электронные версии произведений, а лишь предоставляет доступ к создаваемому пользователями каталогу ссылок на торрент-файлы, которые содержат только списки хеш-сумм

[Профиль] [ЛС]
Показать сообщения:    
Ответить на тему

Текущее время: Сегодня 02:17

Часовой пояс: GMT + 4



Вы не можете начинать темы
Вы не можете отвечать на сообщения
Вы не можете редактировать свои сообщения
Вы не можете удалять свои сообщения
Вы не можете голосовать в опросах
Вы не можете прикреплять файлы к сообщениям
Вы не можете скачивать файлы