Флэш.ка / Флэшка (Георгий Шенгелия) [2006, триллер, драма, криминал, DVDRip]

Ответить на тему
 
Автор Сообщение

user ®

Стаж: 7 лет 7 месяцев

Сообщений: 20008

Пост Пост: #1 от 17-Июл-2013 11:16

[Цитировать]

Флэш.ка / Флэшка
Жанр: триллер, драма, криминал
Год выпуска: 2006
Продолжительность: 01:45:09
Режиссер: Георгий Шенгелия
В ролях: Евгений Стычкин, Илья Шакунов, Андрей Ташков, Владимир Нисков, Юрий Осипов, Владислав Абашин, Валентина Ананьина, Александр Василевский, Ростислав Бершауэр, Георгий Клюев
Описание: Он живет в огромном мегаполисе и работает в солидной финансовой кампании. У него красавица жена, престижная машина, шикарный пентхаус. И не важно, что жена — начальник, да и работа давно не приносит удовольствия. Он просто привык. Он тайно строит дом у реки в далекой деревне, чтобы когда-нибудь отвезти туда жену и вместе вспомнить то время, когда в их жизни было то, что важнее денег: рассветы, друзья, байдарки, парное молоко…
Он еще не знает, что правила установлены, роли расписаны, ошибки — исключены… Однажды он приходит домой слишком рано. Мгновение — и жизнь круто меняется. Предательство жены — и уже нечего терять. Он кладет в карман флэшку с информацией стоимостью 320 миллионов долларов, от которой зависит спокойствие и жизнь Больших Людей. Он едет в дом над рекой. Там будут байдарки, задушевный разговор и лучший друг. Но все это продлится недолго…
Доп.информация:

Сэмпл
Качество видео: DVDRip
Формат видео: AVI
Видео: 624x352 (1.77:1), 25 fps, XviD build 73 ~851 kbps avg, 0.16 bit/pixel
Аудио: 48 kHz, MPEG Layer 3, 2 ch, ~128.00 kbps avg

MediaInfo

Общее
Полное имя : D:\Флэш.ка (2006) DVDRip.avi
Формат : AVI
Формат/Информация : Audio Video Interleave
Размер файла : 744 Мбайт
Продолжительность : 1 ч. 45 м.
Общий поток : 989 Кбит/сек
Программа кодирования : VirtualDubMod 1.5.10.3 | www.virtualdub-fr.org || (build 2550/release)
Библиотека кодирования : VirtualDubMod build 2550/release
Видео
Идентификатор : 0
Формат : MPEG-4 Visual
Профиль формата : Advanced Simple@L5
Параметр BVOP формата : 1
Параметр QPel формата : Нет
Параметр GMC формата : Без точки перехода
Параметр матрицы формата : Выборочная
Идентификатор кодека : XVID
Идентификатор кодека/Подсказка : XviD
Продолжительность : 1 ч. 45 м.
Битрейт : 852 Кбит/сек
Ширина : 624 пикселя
Высота : 352 пикселя
Соотношение сторон : 16:9
Частота кадров : 25,000 кадров/сек
Цветовое пространство : YUV
Субдискретизация насыщенности : 4:2:0
Битовая глубина : 8 бит
Тип развёртки : Прогрессивная
Метод сжатия : С потерями
Бит/(Пиксели*Кадры) : 0.155
Размер потока : 641 Мбайт (86%)
Библиотека кодирования : XviD 73
Аудио
Идентификатор : 1
Формат : MPEG Audio
Версия формата : Version 1
Профиль формата : Layer 3
Идентификатор кодека : 55
Идентификатор кодека/Подсказка : MP3
Продолжительность : 1 ч. 45 м.
Вид битрейта : Постоянный
Битрейт : 128 Кбит/сек
Каналы : 2 канала
Частота : 48,0 КГц
Метод сжатия : С потерями
Размер потока : 96,3 Мбайт (13%)
Выравнивание : Соединение по промежуткам
Продолжительность промежутка : 40 мс. (1,00 видеокадр)
Время предзагрузки промежутка : 504 мс.
Библиотека кодирования : LAME3.98r
Настройки программы : -m s -V 4 -q 0 -lowpass 17 -b 128

Скриншоты

Скачать

Скачать торрент!

Как скачивать? · Что такое торрент? · Рейтинг и ограничения

Сайт не распространяет и не хранит электронные версии произведений, а лишь предоставляет доступ к создаваемому пользователями каталогу ссылок на торрент-файлы, которые содержат только списки хеш-сумм

[Профиль] [ЛС]
Показать сообщения:    
Ответить на тему

Текущее время: Сегодня 20:12

Часовой пояс: GMT + 4



Вы не можете начинать темы
Вы не можете отвечать на сообщения
Вы не можете редактировать свои сообщения
Вы не можете удалять свои сообщения
Вы не можете голосовать в опросах
Вы не можете прикреплять файлы к сообщениям
Вы не можете скачивать файлы