Брат (Алексей Балабанов) [1997, драма, боевик, SATRip]

Ответить на тему
 
Автор Сообщение

user ®

Стаж: 7 лет 7 месяцев

Сообщений: 20008

Пост Пост: #1 от 17-Июл-2013 11:15

[Цитировать]

Брат
Жанр: драма, боевик
Год выпуска: 1997
Продолжительность: 01:34:29
Режиссер: Алексей Балабанов
В ролях: Сергей Бодров-младший, Виктор Сухоруков (озвучание - Алексей Полуян), Светлана Письмиченко, Мария Милютина, Юрий Кузнецов, Вячеслав Бутусов, Ирина Ракшина, Сергей Мурзин (озвучание - Александр Строев), Анатолий Журавлёв, Игорь Шибанов, Андрей Федорцов, Сергей Дебижев (озвучание - Валерий Кухарешин), Алексей Севостьянов, Андрей Краско, Алексей Полуян, Игорь Лифанов (озвучание - Александр Баширов), Сергей Чиграков, Настя Полева, Ринат Ибрагимов, Владимир Ермилов, Анатолий Горин, Денис Кириллов (озвучание - Александр Половцев), Виталий Матвеев, Василина Стрельникова, Сергей Астахов, Артур Арутюнян, Константин Анисимов (озвучание - Виктор Бычков), Сергей Исавнин, Татьяна Захарова (озвучание - Нина Усатова), Юрий Макусинский, Владимир Лабецкий, Лидия Доротенко
Описание: Демобилизованный из армии Данила Багров возвращается в родной город. Скучная, однообразная жизнь провинции не может устроить крепкого русского парня, и он решает поехать в Питер, испытать себя. Тем более, что там, по слухам уже давно процветает его старший брат. Но «новая русская» жизнь северной столицы оказывается слишком неожиданной, а родной брат Данилы зарабатывает на жизнь не совсем обычным способом...
Доп.информация:

Все нецензурные выражения заглушены каналом "Россия" (смотрите семпл)!
Семпл
Качество видео: SATRip
Формат видео: AVI
Видео: 656x384 (1.71:1), 25 fps, XviD build 73 ~962 kbps avg, 0.15 bit/pixel
Аудио: 48 kHz, MPEG Layer 3, 2 ch, ~128.00 kbps avg

MediaInfo

Полное имя : D:\Брат (1997) SATRip 743.avi
Формат : AVI
Формат/Информация : Audio Video Interleave
Размер файла : 743 Мбайт
Продолжительность : 1 ч. 34 м.
Общий поток : 1100 Кбит/сек
Программа кодирования : VirtualDubMod 1.5.10.3 (build 2550/release)
Библиотека кодирования : VirtualDubMod build 2550/release
Видео
Идентификатор : 0
Формат : MPEG-4 Visual
Профиль формата : Advanced Simple@L5
Параметр BVOP формата : 1
Параметр QPel формата : Нет
Параметр GMC формата : Без точки перехода
Параметр матрицы формата : Выборочная
Идентификатор кодека : XVID
Идентификатор кодека/Подсказка : XviD
Продолжительность : 1 ч. 34 м.
Битрейт : 962 Кбит/сек
Ширина : 656 пикселей
Высота : 384 пикселя
Соотношение сторон : 1,708
Частота кадров : 25,000 кадров/сек
Цветовое пространство : YUV
Субдискретизация насыщенности : 4:2:0
Битовая глубина : 8 бит
Тип развёртки : Прогрессивная
Метод сжатия : С потерями
Бит/(Пиксели*Кадры) : 0.153
Размер потока : 650 Мбайт (87%)
Библиотека кодирования : XviD 73
Аудио
Идентификатор : 1
Формат : MPEG Audio
Версия формата : Version 1
Профиль формата : Layer 3
Идентификатор кодека : 55
Идентификатор кодека/Подсказка : MP3
Продолжительность : 1 ч. 34 м.
Вид битрейта : Постоянный
Битрейт : 128 Кбит/сек
Каналы : 2 канала
Частота : 48,0 КГц
Метод сжатия : С потерями
Размер потока : 86,5 Мбайт (12%)
Выравнивание : Соединение по промежуткам
Продолжительность промежутка : 40 мс. (1,00 видеокадр)
Время предзагрузки промежутка : 504 мс.
Библиотека кодирования : LAME3.98r
Настройки программы : -m s -V 4 -q 0 -lowpass 17 -b 128

Скриншоты

Скачать

Скачать торрент!

Как скачивать? · Что такое торрент? · Рейтинг и ограничения

Сайт не распространяет и не хранит электронные версии произведений, а лишь предоставляет доступ к создаваемому пользователями каталогу ссылок на торрент-файлы, которые содержат только списки хеш-сумм

[Профиль] [ЛС]
Показать сообщения:    
Ответить на тему

Текущее время: Сегодня 17:31

Часовой пояс: GMT + 4



Вы не можете начинать темы
Вы не можете отвечать на сообщения
Вы не можете редактировать свои сообщения
Вы не можете удалять свои сообщения
Вы не можете голосовать в опросах
Вы не можете прикреплять файлы к сообщениям
Вы не можете скачивать файлы