Вальсирующие наверняка (Максим Воронков) [1994, комедия, SATRip]

Ответить на тему
 
Автор Сообщение

user ®

Стаж: 7 лет 7 месяцев

Сообщений: 20008

Пост Пост: #1 от 17-Июл-2013 11:15

[Цитировать]

Вальсирующие наверняка
Жанр: комедия
Год выпуска: 1994
Продолжительность: 01:07:36
Режиссёр: Максим Воронков
В ролях: Евгений Тетервов, Максим Воронков, Татьяна Васильева, Ирина Шмелёва, Елена Бушуева, Георгий Мартиросян, Евгений Моргунов, Татьяна Василевская, Инна Усович, Сергей Фоменко, Алексей Булдаков, Александр Пашутин
Описание: Римейк фильма Бертрана Блие "Вальсирующие". Два закадычных друга уверены в себе и верят в свою удачу. Всё для них просто и легко, и любая проблема решается в два счета. Закончились деньги в кошельке - можно совершить грабеж, а если лень ходить пешком - на улице припарковано множество свободных машин. Казалось бы, что может не удаваться безбашенным приятелям? И только с женщинами всё гораздо сложнее...
Доп. информация: Производство - "SPES", "МАКСИМ" при содействии синдиката "КИНОБАБНИК".
Семпл: http://multi-up.com/882314
Качество видео: SATRip
Формат видео: AVI
Видео: 704x528 (1.33:1), 25 fps, XviD, 2072 kbps
Аудио: AC3, 48 kHz, 192.00 kbps avg, 2/0 (L, R)

MediaInfo

General
Complete name : E:\Вальсирующие наверняка.avi
Format : AVI
Format/Info : Audio Video Interleave
File size : 1.07 GiB
Duration : 1h 7mn
Overall bit rate : 2 274 Kbps
Writing library : VirtualDub build 35390/release
Video
ID : 0
Format : MPEG-4 Visual
Format settings, BVOP : No
Format settings, QPel : No
Format settings, GMC : No warppoints
Format settings, Matrix : Default (H.263)
Codec ID : XVID
Codec ID/Hint : XviD
Duration : 1h 7mn
Bit rate : 2 072 Kbps
Width : 704 pixels
Height : 528 pixels
Display aspect ratio : 4:3
Frame rate : 25.000 fps
Color space : YUV
Chroma subsampling : 4:2:0
Bit depth : 8 bits
Scan type : Progressive
Compression mode : Lossy
Bits/(Pixel*Frame) : 0.223
Stream size : 1 002 MiB (91%)
Audio
ID : 1
Format : AC-3
Format/Info : Audio Coding 3
Mode extension : CM (complete main)
Format settings, Endianness : Big
Codec ID : 2000
Duration : 1h 7mn
Bit rate mode : Constant
Bit rate : 192 Kbps
Channel(s) : 2 channels
Channel positions : Front: L R
Sampling rate : 48.0 KHz
Bit depth : 16 bits
Compression mode : Lossy
Stream size : 92.8 MiB (8%)
Alignment : Aligned on interleaves
Interleave, duration : 40 ms (1.00 video frame)
Interleave, preload duration : 512 ms

Скриншоты

Скачать

Скачать торрент!

Как скачивать? · Что такое торрент? · Рейтинг и ограничения

Сайт не распространяет и не хранит электронные версии произведений, а лишь предоставляет доступ к создаваемому пользователями каталогу ссылок на торрент-файлы, которые содержат только списки хеш-сумм

[Профиль] [ЛС]
Показать сообщения:    
Ответить на тему

Текущее время: Сегодня 02:07

Часовой пояс: GMT + 4



Вы не можете начинать темы
Вы не можете отвечать на сообщения
Вы не можете редактировать свои сообщения
Вы не можете удалять свои сообщения
Вы не можете голосовать в опросах
Вы не можете прикреплять файлы к сообщениям
Вы не можете скачивать файлы