Последнее дело Вареного (Виталий Мельников) [1994, комедия, DVDRip-AVC]

Ответить на тему
 
Автор Сообщение

user ®

Стаж: 7 лет 7 месяцев

Сообщений: 20008

Пост Пост: #1 от 17-Июл-2013 11:15

[Цитировать]

Последнее дело Вареного
Жанр: комедия
Год выпуска: 1994
Продолжительность: 01:15:14
Режиссёр: Виталий Мельников
В ролях: Виктор Степанов, Ольга Машная, Виталий Скворкин (озвучание - Андрей Краско), Андрей Ургант, Елена Драпеко, Галина Гудова, Эра Зиганшина, Вера Карпова, Виктор Мелихов, Алла Одинг, Гелий Сысоев, Галина Баранова, Ира Дерягина, Лев Елисеев, Ольга Самошина, Валерий Смоляков, Игорь Яковлев, Наталия Фиссон, Анатолий Сливников, Евгений Каль, Рома Каминский, Андрей Лаврентьев, Борис Маркевич, Александр Платонов, Борис Тумаркин, Пётр Кожевников
Описание: Проработав четыре года, молодой экспедитор Сизухин неожиданно узнает, что под видом перевозок детского питания его фирма занимается контрабандой наркотиков. Решив разобраться в этом деле, он начинает борьбу с мафией - и обращается за помощью к профессиональному вору по кличке Вареный...
Семпл: http://multi-up.com/882387
Качество видео: DVDRip-AVC
Формат видео: MKV
Видео: AVC (H.264), 696x566@742x566 (1.31:1), 25 fps, 1187 kbps avg, 0.121 bit/pixel
Аудио: 48 kHz, AС3, 2 ch, 192 kbps avg

MediaInfo

Общее
Уникальный идентификатор : 170242384016835263686632085854406489248 (0x80137D92999D8FBF9213B8C53ACAB4A0)
Полное имя : D:\Кино\Последнее дело Вареного.mkv
Формат : Matroska
Версия формата : Version 2
Размер файла : 743 Мбайт
Продолжительность : 1 ч. 15 м.
Общий поток : 1381 Кбит/сек
Дата кодирования : UTC 2013-07-07 18:35:08
Программа кодирования : mkvmerge v4.0.0 ('The Stars were mine') сборка от Jun 6 2010 16:18:42
Библиотека кодирования : libebml v1.0.0 + libmatroska v1.0.0
Видео
Идентификатор : 1
Формат : AVC
Формат/Информация : Advanced Video Codec
Профиль формата : High@L4.1
Параметр CABAC формата : Да
Параметр ReFrames формата : 8 кадров
Идентификатор кодека : V_MPEG4/ISO/AVC
Продолжительность : 1 ч. 15 м.
Битрейт : 1187 Кбит/сек
Ширина : 696 пикселей
Высота : 566 пикселей
Соотношение сторон : 4:3
Соотношение сторон в оригинале : 4:3
Режим частоты кадров : Постоянный
Частота кадров : 25,000 кадров/сек
Цветовое пространство : YUV
Субдискретизация насыщенности : 4:2:0
Битовая глубина : 8 бит
Тип развёртки : Прогрессивная
Бит/(Пиксели*Кадры) : 0.121
Размер потока : 625 Мбайт (84%)
Библиотека кодирования : x264 core 133 r2334 a3ac64b
Настройки программы : cabac=1 / ref=8 / deblock=1:-2:-1 / analyse=0x3:0x133 / me=umh / subme=9 / psy=1 / psy_rd=1.00:0.10 / mixed_ref=1 / me_range=24 / chroma_me=1 / trellis=2 / 8x8dct=1 / cqm=0 / deadzone=21,11 / fast_pskip=1 / chroma_qp_offset=-3 / threads=3 / lookahead_threads=1 / sliced_threads=0 / nr=0 / decimate=1 / interlaced=0 / bluray_compat=0 / constrained_intra=0 / bframes=3 / b_pyramid=2 / b_adapt=2 / b_bias=0 / direct=3 / weightb=1 / open_gop=0 / weightp=2 / keyint=250 / keyint_min=25 / scenecut=40 / intra_refresh=0 / rc_lookahead=60 / rc=2pass / mbtree=1 / bitrate=1187 / ratetol=1.0 / qcomp=0.60 / qpmin=10 / qpmax=51 / qpstep=4 / cplxblur=20.0 / qblur=0.5 / vbv_maxrate=50000 / vbv_bufsize=50000 / nal_hrd=none / ip_ratio=1.40 / aq=1:1.00
Default : Нет
Forced : Нет
Аудио
Идентификатор : 2
Формат : AC-3
Формат/Информация : Audio Coding 3
Расширение режима : CM (complete main)
Параметр Endianness формата : Big
Идентификатор кодека : A_AC3
Продолжительность : 1 ч. 15 м.
Вид битрейта : Постоянный
Битрейт : 192 Кбит/сек
Каналы : 2 канала
Расположение каналов : Front: L R
Частота : 48,0 КГц
Битовая глубина : 16 бит
Метод сжатия : С потерями
Размер потока : 103 Мбайт (14%)
Default : Да
Forced : Нет

Лог

---[Information] [07.07.2013 22:34:13] x264 [info]: frame I:602 Avg QP:19.08 size: 31822
---[Information] [07.07.2013 22:34:13] x264 [info]: frame P:30379 Avg QP:21.60 size: 11468
---[Information] [07.07.2013 22:34:13] x264 [info]: frame B:81928 Avg QP:23.27 size: 3693
---[Information] [07.07.2013 22:34:13] x264 [info]: consecutive B-frames: 0.9% 2.9% 12.8% 83.4%
---[Information] [07.07.2013 22:34:13] x264 [info]: mb I I16..4: 8.4% 80.9% 10.6%
---[Information] [07.07.2013 22:34:13] x264 [info]: mb P I16..4: 1.2% 7.0% 0.6% P16..4: 59.7% 15.8% 11.9% 0.1% 0.0% skip: 3.6%
---[Information] [07.07.2013 22:34:13] x264 [info]: mb B I16..4: 0.1% 0.7% 0.0% B16..8: 44.8% 6.2% 1.0% direct: 8.7% skip:38.5% L0:45.2% L1:48.0% BI: 6.8%
---[Information] [07.07.2013 22:34:13] x264 [info]: 8x8 transform intra:80.5% inter:71.9%
---[Information] [07.07.2013 22:34:13] x264 [info]: direct mvs spatial:97.7% temporal:2.3%
---[Information] [07.07.2013 22:34:13] x264 [info]: coded y,uvDC,uvAC intra: 79.4% 80.0% 36.3% inter: 25.7% 34.8% 0.4%
---[Information] [07.07.2013 22:34:13] x264 [info]: i16 v,h,dc,p: 31% 21% 10% 38%
---[Information] [07.07.2013 22:34:13] x264 [info]: i8 v,h,dc,ddl,ddr,vr,hd,vl,hu: 18% 9% 4% 8% 12% 14% 12% 12% 12%
---[Information] [07.07.2013 22:34:13] x264 [info]: i4 v,h,dc,ddl,ddr,vr,hd,vl,hu: 16% 10% 2% 8% 13% 15% 13% 11% 11%
---[Information] [07.07.2013 22:34:13] x264 [info]: i8c dc,h,v,p: 37% 24% 24% 15%
---[Information] [07.07.2013 22:34:13] x264 [info]: Weighted P-Frames: Y:27.6% UV:2.2%
---[Information] [07.07.2013 22:34:13] x264 [info]: ref P L0: 36.4% 13.3% 20.7% 9.2% 6.3% 5.1% 5.0% 3.0% 1.0% 0.1%
---[Information] [07.07.2013 22:34:13] x264 [info]: ref B L0: 72.3% 14.6% 6.2% 2.9% 1.8% 1.6% 0.7%
---[Information] [07.07.2013 22:34:13] x264 [info]: ref B L1: 94.7% 5.3%
---[Information] [07.07.2013 22:34:13] x264 [info]: kb/s:1186.99

Скриншоты

Скачать

Скачать торрент!

Как скачивать? · Что такое торрент? · Рейтинг и ограничения

Сайт не распространяет и не хранит электронные версии произведений, а лишь предоставляет доступ к создаваемому пользователями каталогу ссылок на торрент-файлы, которые содержат только списки хеш-сумм

[Профиль] [ЛС]
Показать сообщения:    
Ответить на тему

Текущее время: Сегодня 03:47

Часовой пояс: GMT + 4



Вы не можете начинать темы
Вы не можете отвечать на сообщения
Вы не можете редактировать свои сообщения
Вы не можете удалять свои сообщения
Вы не можете голосовать в опросах
Вы не можете прикреплять файлы к сообщениям
Вы не можете скачивать файлы