Гагарин. Первый в космосе (Павел Пархоменко) [2013, драма, биография, WEB-DLRip]

Ответить на тему
 
Автор Сообщение

user ®

Стаж: 7 лет 7 месяцев

Сообщений: 20008

Пост Пост: #1 от 17-Июл-2013 11:15

[Цитировать]

Гагарин. Первый в космосе
Жанр: драма, биография
Год выпуска: 2013
Продолжительность: 01:44:46
Режиссёр: Павел Пархоменко
В ролях: Ярослав Жалнин, Михаил Филиппов, Владимир Стеклов, Ольга Иванова, Вадим Мичман, Даниил Воробьев, Надежда Маркина, Виктор Проскурин, Инга Стрелкова-Оболдина, Сергей Калашников
Описание: Фильм посвящен первым шагам человечества на пути освоения космоса и непосредственно судьбе первого космонавта Ю. А. Гагарина. Основной лейтмотив — борьба за право быть первым: соревнование в первом отряде космонавтов; конкуренция технологий в ракетостроении; противостояние сверхдержав — СССР и США. В первый отряд космонавтов отбирали из трёх тысяч летчиков-истребителей по всей стране. В легендарную двадцатку попали лучшие из лучших. Кто из них полетит первым, не знал никто. На этом пути пришлось бороться не только с земным притяжением…
Семпл: http://multi-up.com/880931
Качество видео: WEB-DLRip
Формат видео: AVI
Видео: 640х352 (16:9), 29.970 fps, XviD 1.2.1, 1728 Kbps
Аудио: MP3, 48.0 KHz, 2 ch, 128 Kbps

MediaInfo

General
Complete name : J:\Gagarin.pervyj.v.kosmose.2013.O.WEBRip.1400MB_ СПАМ
Format : AVI
Format/Info : Audio Video Interleave
File size : 1.37 GiB
Duration : 1h 44mn
Overall bit rate : 1 867 Kbps
Writing application : VirtualDubMod 1.5.10.3 | www.virtualdub-fr.org || (build 2550/release)
Writing library : VirtualDubMod build 2550/release
Video
ID : 0
Format : MPEG-4 Visual
Format profile : Advanced Simple@L5
Format settings, BVOP : 2
Format settings, QPel : No
Format settings, GMC : No warppoints
Format settings, Matrix : Custom
Codec ID : XVID
Codec ID/Hint : XviD
Duration : 1h 44mn
Bit rate : 1 728 Kbps
Width : 640 pixels
Height : 352 pixels
Display aspect ratio : 16:9
Frame rate : 29.970 fps
Color space : YUV
Chroma subsampling : 4:2:0
Bit depth : 8 bits
Scan type : Progressive
Compression mode : Lossy
Bits/(Pixel*Frame) : 0.256
Stream size : 1.26 GiB (93%)
Writing library : XviD 1.2.1 (UTC 2008-12-04)
Audio
ID : 1
Format : MPEG Audio
Format version : Version 1
Format profile : Layer 3
Mode : Joint stereo
Mode extension : MS Stereo
Codec ID : 55
Codec ID/Hint : MP3
Duration : 1h 44mn
Bit rate mode : Constant
Bit rate : 128 Kbps
Channel(s) : 2 channels
Sampling rate : 48.0 KHz
Compression mode : Lossy
Stream size : 95.9 MiB (7%)
Alignment : Aligned on interleaves
Interleave, duration : 33 ms (1.00 video frame)
Interleave, preload duration : 504 ms

Скриншот c названием фильма

Скриншоты

Скачать

Скачать торрент!

Как скачивать? · Что такое торрент? · Рейтинг и ограничения

Сайт не распространяет и не хранит электронные версии произведений, а лишь предоставляет доступ к создаваемому пользователями каталогу ссылок на торрент-файлы, которые содержат только списки хеш-сумм

[Профиль] [ЛС]
Показать сообщения:    
Ответить на тему

Текущее время: Сегодня 22:22

Часовой пояс: GMT + 4



Вы не можете начинать темы
Вы не можете отвечать на сообщения
Вы не можете редактировать свои сообщения
Вы не можете удалять свои сообщения
Вы не можете голосовать в опросах
Вы не можете прикреплять файлы к сообщениям
Вы не можете скачивать файлы