Дом, милый дом / Home Sweet Home (Девид Морлет / David Morlet) [2013, Канада, Ужасы, триллер, WEB-Rip] VO

Ответить на тему
 
Автор Сообщение

user ®

Стаж: 7 лет 7 месяцев

Сообщений: 20008

Пост Пост: #1 от 17-Июл-2013 09:25

[Цитировать]

Дом, милый дом / Home Sweet Home
Страна: Канада
Жанр: Ужасы, триллер
Год выпуска: 2013
Продолжительность: 01:21:34
Слоган: "Дом ваш, правила мои."
Перевод: Одноголосый закадровый (Zelesk)
Cубтитры: нет
Режиссер: Девид Морлет / David Morlet
В ролях: Марти Адамс, Шон Бенсон, Меган Хеффен,
Описание: Фрэнк и Сара недавно переехали в провинцию, чтобы воспитать своего годовалого сына Адама подальше от хаоса и загрязнений большого города. В глубине души Сара опасается жить вдали от цивилизации, и её страх усиливается, когда однажды утром она замечает во дворе их дома постороннего человека. Фрэнк уверяет её, что все в порядке, но Сара всё равно оставляет сообщение в офис шерифа.
Тем же вечером они оставляют Адама с родителями Сары в городе, чтобы позволить себе побыть друг с другом наедине. Они и не догадываются, что злоумышленник уже проник в их дом и превратил его в ловушку, замуровав окна и отключив систему обеспечения безопасности.
И вот, когда они возвращаются домой, романтический вечер постепенно сходит на нет, уступая место живому кошмару. Начинается финальная игра в кошки-мышки.
Сэмпл: http://multi-up.com/866802


Качество видео: WEB-Rip
Формат видео: AVI
Видео: 640x270 (2.37:1), 25 fps, Microsoft MPEG-4 Video Codec V3 ~770 kbps avg, 0.18 bit/pixel
Аудио 1: 44.100 kHz, MPEG Layer 3, 2 ch, ~256.00 kbps avg
Аудио 2: 44.100 kHz, MPEG Layer 3, 2 ch, ~128.00 kbps avg

MediaInfo

General
Complete name : K:\Home_sweet_home.avi
Format : AVI
Format/Info : Audio Video Interleave
File size : 684 MiB
Duration : 1h 21mn
Overall bit rate : 1 173 Kbps
Writing application : VirtualDubMod 1.5.10.2 (build 2540/release)
Writing library : VirtualDubMod build 2540/release
Video
ID : 0
Format : mp43
Codec ID : mp43
Duration : 1h 21mn
Bit rate : 772 Kbps
Width : 640 pixels
Height : 270 pixels
Display aspect ratio : 2.35:1
Frame rate : 25.000 fps
Bits/(Pixel*Frame) : 0.179
Stream size : 450 MiB (66%)
Audio #1
ID : 1
Format : MPEG Audio
Format version : Version 1
Format profile : Layer 3
Mode : Joint stereo
Codec ID : 55
Codec ID/Hint : MP3
Duration : 1h 21mn
Bit rate mode : Constant
Bit rate : 256 Kbps
Channel(s) : 2 channels
Sampling rate : 44.1 KHz
Compression mode : Lossy
Stream size : 149 MiB (22%)
Alignment : Split accross interleaves
Interleave, duration : 40 ms (1.00 video frame)
Interleave, preload duration : 500 ms
Audio #2
ID : 2
Format : MPEG Audio
Format version : Version 1
Format profile : Layer 3
Mode : Joint stereo
Mode extension : MS Stereo
Codec ID : 55
Codec ID/Hint : MP3
Duration : 1h 21mn
Bit rate mode : Constant
Bit rate : 128 Kbps
Channel(s) : 2 channels
Sampling rate : 44.1 KHz
Compression mode : Lossy
Stream size : 74.7 MiB (11%)
Alignment : Aligned on interleaves
Interleave, duration : 26 ms (0.65 video frame)
Interleave, preload duration : 522 ms
Writing library : LAME3.98.2

Скриншот c названием фильма

Скриншоты



Скачать

Скачать торрент!

Как скачивать? · Что такое торрент? · Рейтинг и ограничения

Сайт не распространяет и не хранит электронные версии произведений, а лишь предоставляет доступ к создаваемому пользователями каталогу ссылок на торрент-файлы, которые содержат только списки хеш-сумм

[Профиль] [ЛС]
Показать сообщения:    
Ответить на тему

Текущее время: Сегодня 01:13

Часовой пояс: GMT + 4



Вы не можете начинать темы
Вы не можете отвечать на сообщения
Вы не можете редактировать свои сообщения
Вы не можете удалять свои сообщения
Вы не можете голосовать в опросах
Вы не можете прикреплять файлы к сообщениям
Вы не можете скачивать файлы