Крепкий орешек: Хороший день, чтобы умереть / A Good Day to Die Hard (Джон Мур / John Moore) [2013, США, боевик, триллер, криминал, BDRip] [Theatrical Cut] Dub [лицензия]

Ответить на тему
 
Автор Сообщение

user ®

Стаж: 7 лет 7 месяцев

Сообщений: 20008

Пост Пост: #1 от 17-Июл-2013 09:25

[Цитировать]

Крепкий орешек: Хороший день, чтобы умереть / A Good Day to Die Hard
Театральная версия / Theatrical Cut
«Яблоко от яблони»
-Страна: США / 20th Century Fox Film Corporation, Dune Entertainment, Giant Pictures
Жанр: боевик, триллер, криминал
Год выпуска: 2013
Продолжительность: 01:37:39
Перевод: Профессиональный (дублированный) лицензия
Cубтитры: нет
Режиссер: Джон Мур / John Moore
В ролях: Брюс Уиллис, Джай Кортни, Себастьян Кох, Юлия Снигирь, Радивойе Буквич, Сергей Колесников, Мэри Элизабет Уинстэд, Коул Хаузер, Амори Ноласко, Роман Лукнар.
Описание: Джон МакКлейн прибывает в Москву, чтобы вызволить из тюрьмы своего непредсказуемого сына, но холодная голова и железные мускулы вязнут в паутине российской действительности. Дело, в которое влип МакКлейн-младший, оказывается настолько «опасной трясиной», что отцу и сыну, чтобы выжить и в очередной раз спасти мир, приходится объединить свои усилия, забыв прежние, казалось бы, непреодолимые разногласия.-Рейтинг
imdb.com: 5.50 (52 159)
kinopoisk.ru: 5.335 (12 857)
MPAA: R - лицам до 17 лет обязательно присутствие взрослого-Сэмпл: http://multi-up.com/868934-Качество видео: BDRip [Krepkij.oreshek-Horoshij.den.chtoby.umeret.2013.MPEG-4-AVC.BluRay-Remux.1080p.mkv]
Формат видео: AVI
Видео: XviD build 65, 704x384 (1.85:1), 23.976 fps, ~1751 kbps avg, 0.27 bit/pixel
Аудио: 48 kHz, AC3 Dolby Digital, 3/2 (L,C,R,l,r) + LFE ch, ~384 kbps avg (DUB)
-

MediaInfo

General
Complete name : D\Torrent Rutracker\A.Good.Day.to.Die.Hard.2013.Theatrical.Dub.1.46,Gb.BDRip.XviD.AC3.avi
Format : AVI
Format/Info : Audio Video Interleave
File size : 1.46 GiB
Duration : 1h 37mn
Overall bit rate : 2 144 Kbps
Writing application : VirtualDubModRus 1.5.10.2 (build 2542/release)
Writing library : VirtualDubMod build 2542/release
Video
ID : 0
Format : MPEG-4 Visual
Format profile : Advanced Simple@L5
Format settings, BVOP : 1
Format settings, QPel : No
Format settings, GMC : No warppoints
Format settings, Matrix : Custom
Codec ID : XVID
Codec ID/Hint : XviD
Duration : 1h 37mn
Bit rate : 1 751 Kbps
Width : 704 pixels
Height : 384 pixels
Display aspect ratio : 1.85:1
Frame rate : 23.976 fps
Color space : YUV
Chroma subsampling : 4:2:0
Bit depth : 8 bits
Scan type : Progressive
Compression mode : Lossy
Bits/(Pixel*Frame) : 0.270
Stream size : 1.19 GiB (82%)
Writing library : XviD 65
Audio
ID : 1
Format : AC-3
Format/Info : Audio Coding 3
Mode extension : CM (complete main)
Format settings, Endianness : Big
Codec ID : 2000
Duration : 1h 37mn
Bit rate mode : Constant
Bit rate : 384 Kbps
Channel(s) : 6 channels
Channel positions : Front: L C R, Side: L R, LFE
Sampling rate : 48.0 KHz
Bit depth : 16 bits
Compression mode : Lossy
Stream size : 268 MiB (18%)
Alignment : Split accross interleaves
Interleave, duration : 42 ms (1.00 video frame)
Interleave, preload duration : 500 ms
Title : Dub

Скриншоты

Скачать

Скачать торрент!

Как скачивать? · Что такое торрент? · Рейтинг и ограничения

Сайт не распространяет и не хранит электронные версии произведений, а лишь предоставляет доступ к создаваемому пользователями каталогу ссылок на торрент-файлы, которые содержат только списки хеш-сумм

[Профиль] [ЛС]
Показать сообщения:    
Ответить на тему

Текущее время: Сегодня 20:34

Часовой пояс: GMT + 4



Вы не можете начинать темы
Вы не можете отвечать на сообщения
Вы не можете редактировать свои сообщения
Вы не можете удалять свои сообщения
Вы не можете голосовать в опросах
Вы не можете прикреплять файлы к сообщениям
Вы не можете скачивать файлы