Тачка №19 / Vehicle 19 (Мукунда Майкл Дьюил / Mukunda Michael Dewil) [2013, США, Триллер, боевик, HDRip] Dub (R5) + Original (Eng) + Subs (Rus, Eng)

Ответить на тему
 
Автор Сообщение

user ®

Стаж: 7 лет 7 месяцев

Сообщений: 20008

Пост Пост: #1 от 17-Июл-2013 09:24

[Цитировать]

Тачка №19 / Vehicle 19
«Он выбрал не ту тачку. Они нарвались не на того парня»
- Год выхода: 2013
Выпущено: США / Forefront Media Group, Safran Company, The, Industrial Development Corporation of South Africa
Жанр: триллер, боевик
Продолжительность: 01:25:10
Перевод: Профессиональный (полное дублирование) R5 + Оригинальная дорожка
Cубтитры: Русские, Английские (полные, внешние .srt*)-Режиссер:
Мукунда Майкл Дьюил / Mukunda Michael Dewil-В ролях:
Пол Уокер (Michael Woods), Наима МакЛин (Rachel Shabangu), Ги Де Виллерс (Detective Smith), Лэйла Хайдариан (Angelica Moore), Тшепо Масеко (Lieutenant), Андриан Мазив (Journalist Benji), Велиль Нзуза (Mohawk), Мангалисо Нгема (Judge), Эрнест Кубайи (Crackhead), Элиз Ван Никерк (Car Rental Receptionist)-О фильме:
Рассказ пойдет про американца, который перевозит свидетеля, чтобы тот дал показания против коррумпированных полицейских. Последние всеми силами будут пытаться помешать свидетелю доехать до здания суда (живым).-IMDB | КиноПоиск | Сэмпл |-Качество: HDRip [Vehicle.19.2013.1080p.BluRay.x264-ROVERS]
Формат: AVI
Видео: 720x304 (2.37:1), 23.976 fps, XviD build 73 ~1988 kbps avg, 0.38 bit/pixel
Аудио #1: 48 kHz, AC3 Dolby Digital, 3/2 (L,C,R,l,r) + LFE ch, ~448 kbps avg (RUS)
Аудио #2: 48 kHz, AC3 Dolby Digital, 3/2 (L,C,R,l,r) + LFE ch, ~448 kbps avg (ENG) отдельно
-

Скриншоты

MediaInfo

General
Complete name                            : D:\Ta4ka_№19_2013_HDRip_by_Dalemake.avi
Format                                   : AVI
Format/Info                              : Audio Video Interleave
File size                                : 1.46 GiB
Duration                                 : 1h 25mn
Overall bit rate                         : 2 447 Kbps
Writing application                      : VirtualDubMod 1.5.10.3 | www.virtualdub-fr.org || (build 2550/release)
Writing library                          : VirtualDubMod build 2550/release
Video
ID                                       : 0
Format                                   : MPEG-4 Visual
Format profile                           : Advanced Simple@L5
Format settings, BVOP                    : 1
Format settings, QPel                    : No
Format settings, GMC                     : No warppoints
Format settings, Matrix                  : Custom
Codec ID                                 : XVID
Codec ID/Hint                            : XviD
Duration                                 : 1h 25mn
Bit rate                                 : 1 989 Kbps
Width                                    : 720 pixels
Height                                   : 304 pixels
Display aspect ratio                     : 2.35:1
Frame rate                               : 23.976 fps
Color space                              : YUV
Chroma subsampling                       : 4:2:0
Bit depth                                : 8 bits
Scan type                                : Progressive
Compression mode                         : Lossy
Bits/(Pixel*Frame)                       : 0.379
Stream size                              : 1.18 GiB (81%)
Writing library                          : XviD 73
Audio
ID                                       : 1
Format                                   : AC-3
Format/Info                              : Audio Coding 3
Mode extension                           : CM (complete main)
Format settings, Endianness              : Big
Codec ID                                 : 2000
Duration                                 : 1h 25mn
Bit rate mode                            : Constant
Bit rate                                 : 448 Kbps
Channel(s)                               : 6 channels
Channel positions                        : Front: L C R, Side: L R, LFE
Sampling rate                            : 48.0 KHz
Bit depth                                : 16 bits
Compression mode                         : Lossy
Stream size                              : 273 MiB (18%)
Alignment                                : Split accross interleaves
Interleave, duration                     : 42 ms (1.00 video frame)
Interleave, preload duration             : 500 ms
-
Скачать

Скачать торрент!

Как скачивать? · Что такое торрент? · Рейтинг и ограничения

Сайт не распространяет и не хранит электронные версии произведений, а лишь предоставляет доступ к создаваемому пользователями каталогу ссылок на торрент-файлы, которые содержат только списки хеш-сумм

[Профиль] [ЛС]
Показать сообщения:    
Ответить на тему

Текущее время: Сегодня 00:41

Часовой пояс: GMT + 4



Вы не можете начинать темы
Вы не можете отвечать на сообщения
Вы не можете редактировать свои сообщения
Вы не можете удалять свои сообщения
Вы не можете голосовать в опросах
Вы не можете прикреплять файлы к сообщениям
Вы не можете скачивать файлы