За канделябрами / Behind The Candelabra (Стивен Содерберг / Steven Soderbergh) [2013, США, драма, биография, HDRip] VO + Original (Eng) + Subs (Rus, Eng)

Ответить на тему
 
Автор Сообщение

user ®

Стаж: 7 лет 7 месяцев

Сообщений: 20008

Пост Пост: #1 от 17-Июл-2013 09:23

[Цитировать]

За канделябрами / Behind the candelabra
Страна: США
Релизер: Канал HBO
Жанр: Драма, мелодрама
Год выпуска: 2013
Продолжительность: 01:58:28
Перевод: Одноголосый закадровый (Перевод: Сергей Блинов, Озвучка: Василий Кошкин)
Субтитры: Русские (Ольга Бродская - LadyVanilla), английские.
Режиссер: Стивен Содерберг / Steven Soderbergh
В ролях: Майкл Дуглас, Мэтт Дэймон, Дэн Эйкройд, Скотт Бакула, Роб Лоу, Дебби Рейнолдс, Эрик Цуккерман, Эдди Джемисон, Рэнди Лауэлл, Том Роач и др.
Описание: Байопик о скандально известном пианисте и конферансье Владзиу Валентино Либераче.
Либераче обрел популярность в 50-х годах благодаря своим пластинкам, а также частому появлению на телевидении и в кино.
Летом 1977 г. в его ложу проник молодой красавец Скотт Торсон, и, несмотря на разницу в возрасте и социальном положении,
между мужчинами возникла тайная связь, продолжавшаяся пять лет.
Фильм основан на книге самого Скотта Торсона, в которой он раскрывает всю правду об их бурном романе.

Качество видео: HDRip
Формат видео: AVI
Видео: XviD; 720х400; 23,976 fps; ~2230 kbps
Аудио 1: AC-3; 48,0 kHz; Stereo; 192 kbps | VO
Аудио 2: AC-3; 48,0 kHz; Stereo; 192 kbps | Original

СЕМПЛ

MediaInfo

Общее
Полное имя : Behind The Candelabra (2013).avi
Формат : AVI
Формат/Информация : Audio Video Interleave
Профиль формата : OpenDML
Размер файла : 2,18 Гбайт
Продолжительность : 1 ч. 58 м.
Общий поток : 2638 Кбит/сек
Программа кодирования : VirtualDubModRus 1.5.10.2 (build 2542/release)
Библиотека кодирования : VirtualDubMod build 2542/release
Видео
Идентификатор : 0
Формат : MPEG-4 Visual
Профиль формата : Advanced Simple@L5
Параметр BVOP формата : 1
Параметр QPel формата : Нет
Параметр GMC формата : Без точки перехода
Параметр матрицы формата : Default (MPEG)
Идентификатор кодека : XVID
Идентификатор кодека/Подсказка : XviD
Продолжительность : 1 ч. 58 м.
Битрейт : 2236 Кбит/сек
Ширина : 720 пикселей
Высота : 400 пикселей
Соотношение сторон : 16:9
Частота кадров : 23,976 кадра/сек
Цветовое пространство : YUV
Субдискретизация насыщенности : 4:2:0
Битовая глубина : 8 бит
Тип развёртки : Прогрессивная
Метод сжатия : С потерями
Бит/(Пиксели*Кадры) : 0.324
Размер потока : 1,85 Гбайт (85%)
Библиотека кодирования : XviD 1.2.1 (UTC 2008-12-04)
Аудио #1
Идентификатор : 1
Формат : AC-3
Формат/Информация : Audio Coding 3
Расширение режима : CM (complete main)
Параметр Endianness формата : Big
Идентификатор кодека : 2000
Продолжительность : 1 ч. 58 м.
Вид битрейта : Постоянный
Битрейт : 192 Кбит/сек
Каналы : 2 канала
Расположение каналов : Front: L R
Частота : 48,0 КГц
Битовая глубина : 16 бит
Метод сжатия : С потерями
Размер потока : 163 Мбайт (7%)
Выравнивание : Разделение по промежуткам
Продолжительность промежутка : 42 мс. (1,00 видеокадр)
Время предзагрузки промежутка : 500 мс.
Аудио #2
Идентификатор : 2
Формат : AC-3
Формат/Информация : Audio Coding 3
Расширение режима : CM (complete main)
Параметр Endianness формата : Big
Идентификатор кодека : 2000
Продолжительность : 1 ч. 58 м.
Вид битрейта : Постоянный
Битрейт : 192 Кбит/сек
Каналы : 2 канала
Расположение каналов : Front: L R
Частота : 48,0 КГц
Битовая глубина : 16 бит
Метод сжатия : С потерями
Размер потока : 163 Мбайт (7%)
Выравнивание : Разделение по промежуткам
Продолжительность промежутка : 42 мс. (1,00 видеокадр)
Время предзагрузки промежутка : 500 мс.

Скриншот с названием фильма

Скриншоты


Скачать

Скачать торрент!

Как скачивать? · Что такое торрент? · Рейтинг и ограничения

Сайт не распространяет и не хранит электронные версии произведений, а лишь предоставляет доступ к создаваемому пользователями каталогу ссылок на торрент-файлы, которые содержат только списки хеш-сумм

[Профиль] [ЛС]
Показать сообщения:    
Ответить на тему

Текущее время: Сегодня 22:41

Часовой пояс: GMT + 4



Вы не можете начинать темы
Вы не можете отвечать на сообщения
Вы не можете редактировать свои сообщения
Вы не можете удалять свои сообщения
Вы не можете голосовать в опросах
Вы не можете прикреплять файлы к сообщениям
Вы не можете скачивать файлы