Сибирское воспитание / Educazione siberiana (Габриэле Сальваторес / Gabriele Salvatores) [2013, Италия, триллер, драма, криминал, биография, HDRip] VO

Ответить на тему
 
Автор Сообщение

user ®

Стаж: 8 лет 2 месяца

Сообщений: 20008

Пост Пост: #1 от 17-Июл-2013 09:23

[Цитировать]

Сибирское воспитание / Educazione siberiana- Страна: Италия
Жанр: триллер, драма, криминал, биография
Год выпуска: 2013
Продолжительность: 01:43:33-Перевод: Одноголосый закадровый
Cубтитры: нет
Оригинальная аудиодорожка: нет-Режиссер: Габриэле Сальваторес / Gabriele Salvatores
В ролях: Арнас Федаравичус, Элинор Томлинсон, Вилиус Тумалавичус, Йонас Труканас, Виталий Поршнев, Петер Стормаре, Джон Малкович, Миндаугас Папинигис, Андрюс Паулавичюс, Донатас Шимукаускас-Описание: Действие фильма развернется в одном из глухих сибирских поселков. Юный главный герой по имени Колыма оказывается впутан в жестокий криминальный мир своего родного городка. Мы увидим становление этого мальчика, которому приходится принять правила их общины и пуститься во все тяжкие. Жить «по понятиям» его научит матерый авторитет — дед Кузя.- -Качество видео: HDRip
Формат видео: AVI-Видео: 640x352 (1.82:1), 23.976 fps, XviD MPEG-4 ~870 kbps avg, 0.16 bit/pixel
Аудио: Russian ( 48 kHz, MPEG Layer 3, 2 ch, ~128.00 kbps avg)

MediaInfo

Общее
Полное имя : F:siberian.education.2013.HDRip.745.avi
Формат : AVI
Формат/Информация : Audio Video Interleave
Размер файла : 747 Мбайт
Продолжительность : 1 ч. 43 м.
Общий поток : 1008 Кбит/сек
Название фильма : siberian.education.2013.HDRip.745
Режиссёр : Modepido
Программа кодирования : VirtualDubMod 1.5.10.2 (build 2540/release)
Видео
Идентификатор : 0
Формат : MPEG-4 Visual
Профиль формата : Advanced Simple@L5
Параметр BVOP формата : 1
Параметр QPel формата : Нет
Параметр GMC формата : Без точки перехода
Параметр матрицы формата : Выборочная
Идентификатор кодека : DX50
Идентификатор кодека/Подсказка : DivX 5
Продолжительность : 1 ч. 43 м.
Битрейт : 871 Кбит/сек
Ширина : 640 пикс.
Высота : 352 пикс.
Соотношение сторон : 16:9
Частота кадров : 23,976 кадр/сек
Цветовое пространство : YUV
Подвыборка цветности : 4:2:0
Битовая глубина : 8 бит
Тип развёртки : Прогрессивная
Метод сжатия : С потерями
Бит/(Пиксели*Кадры) : 0.161
Размер потока : 645 Мбайт (86%)
Библиотека кодирования : XviD 64
Аудио
Идентификатор : 1
Формат : MPEG Audio
Версия формата : Version 1
Профиль формата : Layer 3
Режим : Joint stereo
Расширение режима : MS Stereo
Идентификатор кодека : 55
Идентификатор кодека/Подсказка : MP3
Продолжительность : 1 ч. 43 м.
Вид битрейта : Постоянный
Битрейт : 128 Кбит/сек
Каналы : 2 канала
Частота : 48,0 КГц
Метод сжатия : С потерями
Размер потока : 94,8 Мбайт (13%)
Выравнивание : Соединение по промежуткам
Продолжительность промежутка : 42 мс. (1,00 видеокадр)
Время предзагрузки промежутка : 504 ms

Скриншот c названием фильма

Скриншоты

Скачать

Скачать торрент!

Как скачивать? · Что такое торрент? · Рейтинг и ограничения

Сайт не распространяет и не хранит электронные версии произведений, а лишь предоставляет доступ к создаваемому пользователями каталогу ссылок на торрент-файлы, которые содержат только списки хеш-сумм

[Профиль] [ЛС]
Показать сообщения:    
Ответить на тему

Текущее время: Сегодня 05:45

Часовой пояс: GMT + 4



Вы не можете начинать темы
Вы не можете отвечать на сообщения
Вы не можете редактировать свои сообщения
Вы не можете удалять свои сообщения
Вы не можете голосовать в опросах
Вы не можете прикреплять файлы к сообщениям
Вы не можете скачивать файлы