Вечеринка / Afterparty (Мигель Ларрайа Валенсуела / Miguel Larraya Valenzuela) [2013, Испания, ужасы, HDRip] VO (den904)

Ответить на тему
 
Автор Сообщение

user ®

Стаж: 7 лет 7 месяцев

Сообщений: 20008

Пост Пост: #1 от 17-Июл-2013 09:22

[Цитировать]

Вечеринка / Afterparty- Страна: Испания
Жанр: ужасы
Год выпуска: 2013
Продолжительность: 01:18:57-Перевод: Одноголосый закадровый den904
Cубтитры: нет
Оригинальная аудиодорожка: нет-Режиссер: Мигель Ларрайа Валенсуела / Miguel Larraya Valenzuela
В ролях: Алисия Санс, Урсула Корберо, Луис Фернандес, Андреа Дуэсо, Давид Сеихо, Фернандо Луечес, Ева Угарте, Хуан Бланко, Росио Леон, Ана Кальдас-Описание: Карлос — телезвезда и кумир молодёжи, развлекается на дикой вечеринке с самыми прекрасными девушками. На следующее утро он просыпается в неизвестном заброшенном доме с тремя девушками, с которыми развлекался прошлой ночью. Молодые люди не могут связаться с внешним миром. Вскоре они осознают, что не одни в этом таинственном доме и понимают, что, возможно, им никогда оттуда не выбраться…- -Качество видео: HDRip
Формат видео: AVI-Видео: 720x304 (2.37:1), 23.976 fps, XviD build 50 ~1101 kbps avg, 0.21 bit/pixel
Аудио: Russian ( 48 kHz, MPEG Layer 3, 2 ch, ~128.00 kbps avg )

MediaInfo

Общее
Полное имя : F:Вечеринка.2013.HDRip.700Mb.avi
Формат : AVI
Формат/Информация : Audio Video Interleave
Размер файла : 700 Мбайт
Продолжительность : 1 ч. 18 м.
Общий поток : 1239 Кбит/сек
Программа кодирования : VirtualDubMod 1.5.10.2 (build 2540/release)
Библиотека кодирования : VirtualDubMod build 2540/release
Видео
Идентификатор : 0
Формат : MPEG-4 Visual
Профиль формата : Advanced Simple@L5
Параметр BVOP формата : 2
Параметр QPel формата : Нет
Параметр GMC формата : Без точки перехода
Параметр матрицы формата : Default (H.263)
Идентификатор кодека : XVID
Идентификатор кодека/Подсказка : XviD
Продолжительность : 1 ч. 18 м.
Битрейт : 1102 Кбит/сек
Ширина : 720 пикс.
Высота : 304 пикс.
Соотношение сторон : 2,35:1
Частота кадров : 23,976 кадр/сек
Цветовое пространство : YUV
Подвыборка цветности : 4:2:0
Битовая глубина : 8 бит
Тип развёртки : Прогрессивная
Метод сжатия : С потерями
Бит/(Пиксели*Кадры) : 0.210
Размер потока : 622 Мбайт (89%)
Библиотека кодирования : XviD 1.2.1 (UTC 2008-12-04)
Аудио
Идентификатор : 1
Формат : MPEG Audio
Версия формата : Version 1
Профиль формата : Layer 3
Режим : Joint stereo
Расширение режима : MS Stereo
Идентификатор кодека : 55
Идентификатор кодека/Подсказка : MP3
Продолжительность : 1 ч. 18 м.
Вид битрейта : Постоянный
Битрейт : 128 Кбит/сек
Каналы : 2 канала
Частота : 48,0 КГц
Метод сжатия : С потерями
Размер потока : 72,3 Мбайт (10%)
Выравнивание : Соединение по промежуткам
Продолжительность промежутка : 42 мс. (1,00 видеокадр)
Время предзагрузки промежутка : 504 ms

Скриншот c названием фильма

Скриншоты

Скачать

Скачать торрент!

Как скачивать? · Что такое торрент? · Рейтинг и ограничения

Сайт не распространяет и не хранит электронные версии произведений, а лишь предоставляет доступ к создаваемому пользователями каталогу ссылок на торрент-файлы, которые содержат только списки хеш-сумм

[Профиль] [ЛС]
Показать сообщения:    
Ответить на тему

Текущее время: Сегодня 12:08

Часовой пояс: GMT + 4



Вы не можете начинать темы
Вы не можете отвечать на сообщения
Вы не можете редактировать свои сообщения
Вы не можете удалять свои сообщения
Вы не можете голосовать в опросах
Вы не можете прикреплять файлы к сообщениям
Вы не можете скачивать файлы