Ричард: Львиное сердце / Richard: The Lionheart (Стефано Милла / Stefano Milla) [2013, США, Италия, фэнтези, боевик, приключения, DVDRip] VO

Ответить на тему
 
Автор Сообщение

user ®

Стаж: 7 лет 7 месяцев

Сообщений: 20008

Пост Пост: #1 от 17-Июл-2013 09:22

[Цитировать]

Ричард: Львиное сердце / Richard: The Lionheart- Страна: США, Италия
Жанр: фэнтези, боевик, приключения
Год выпуска: 2013
Продолжительность: 01:39:59-Перевод: Одноголосый закадровый
Cубтитры: нет
Оригинальная аудиодорожка: нет-Режиссер: Стефано Милла / Stefano Milla
В ролях: Малкольм МакДауэлл, Стюарт Арнольд, Чандлер Манесс, Маурицио Корильяно, Шэрон Фрайер, Бертон Перез-Описание: Король Генри II проверяет лояльность и честь своего сына Ричарда, посылая его в секретный замок, известный как Мученик Рыцаря.- -Качество видео: DVDRip
Формат видео: AVI-Видео: 640x272 (2.35:1), 25 fps, XviD build 50 ~848 kbps avg, 0.20 bit/pixel
Аудио: Russian (48 kHz, MPEG Layer 3, 2 ch, ~128.00 kbps avg )

MediaInfo

Общее
Полное имя : F:Ричард Львиное сердце.2013.DVDRip.avi
Формат : AVI
Формат/Информация : Audio Video Interleave
Размер файла : 706 Мбайт
Продолжительность : 1 ч. 39 м.
Общий поток : 987 Кбит/сек
Программа кодирования : VirtualDubMod 1.5.10.3 | (build 2550/release)
Библиотека кодирования : VirtualDubMod build 2550/release
Видео
Идентификатор : 0
Формат : MPEG-4 Visual
Профиль формата : Advanced Simple@L5
Параметр BVOP формата : 2
Параметр QPel формата : Нет
Параметр GMC формата : Без точки перехода
Параметр матрицы формата : Default (MPEG)
Идентификатор кодека : XVID
Идентификатор кодека/Подсказка : XviD
Продолжительность : 1 ч. 39 м.
Битрейт : 849 Кбит/сек
Ширина : 640 пикс.
Высота : 272 пикс.
Соотношение сторон : 2,35:1
Частота кадров : 25,000 кадр/сек
Цветовое пространство : YUV
Подвыборка цветности : 4:2:0
Битовая глубина : 8 бит
Тип развёртки : Прогрессивная
Метод сжатия : С потерями
Бит/(Пиксели*Кадры) : 0.195
Размер потока : 607 Мбайт (86%)
Библиотека кодирования : XviD 1.2.1 (UTC 2008-12-04)
Аудио
Идентификатор : 1
Формат : MPEG Audio
Версия формата : Version 1
Профиль формата : Layer 3
Режим : Joint stereo
Расширение режима : MS Stereo
Идентификатор кодека : 55
Идентификатор кодека/Подсказка : MP3
Продолжительность : 1 ч. 39 м.
Вид битрейта : Постоянный
Битрейт : 128 Кбит/сек
Каналы : 2 канала
Частота : 48,0 КГц
Метод сжатия : С потерями
Размер потока : 91,5 Мбайт (13%)
Выравнивание : Соединение по промежуткам
Продолжительность промежутка : 40 мс. (1,00 видеокадр)
Время предзагрузки промежутка : 504 ms
Библиотека кодирования : LAME3.99r
Настройки программы : -m j -V 4 -q 2 -lowpass 17 -b 128

Скриншот c названием фильма

Скриншоты

Скачать

Скачать торрент!

Как скачивать? · Что такое торрент? · Рейтинг и ограничения

Сайт не распространяет и не хранит электронные версии произведений, а лишь предоставляет доступ к создаваемому пользователями каталогу ссылок на торрент-файлы, которые содержат только списки хеш-сумм

[Профиль] [ЛС]
Показать сообщения:    
Ответить на тему

Текущее время: Сегодня 17:28

Часовой пояс: GMT + 4



Вы не можете начинать темы
Вы не можете отвечать на сообщения
Вы не можете редактировать свои сообщения
Вы не можете удалять свои сообщения
Вы не можете голосовать в опросах
Вы не можете прикреплять файлы к сообщениям
Вы не можете скачивать файлы