Эпоха алчности / Bailout: The Age of Greed / Assault on Wall Street (Уве Болл / Uwe Boll) [2013, триллер, драма, BDRip-AVC] VO

Ответить на тему
 
Автор Сообщение

user ®

Стаж: 7 лет 7 месяцев

Сообщений: 20008

Пост Пост: #1 от 17-Июл-2013 09:22

[Цитировать]

Эпоха алчности / Bailout: The Age of Greed / Assault on Wall Street- Страна: Канада, Lynn Peak Productions
Жанр: триллер, драма
Год выпуска: 2013
Продолжительность:
Перевод: Одноголосый закадровый [den904] [перевод Janetta]
Субтитры: нет
Оригинальная дорожка: нет
Главы: есть
Режиссер: Уве Болл / Uwe Boll
В ролях: Доминик Пёрселл, Эрин Карплак, Эдвард Ферлонг, Джон Хёрд, Кит Дэвид, Майкл Паре, Локлин Манро, Тайрон Лейтсо, Майк Допуд, Барклай Хоуп-Описание: Это история обычного, среднестатистического жителя Нью-Йорка, с хорошей работой и счастливой семьей. После того, как наступает экономический кризис, он лишается работы и будучи в отчаянии он берет оружие и отправляется мстить за свою испорченную жизнь.-IMDB | Кинопоиск | Сэмпл-Качество видео: BDRip-AVC (энкод L)
Формат видео: MKV
Видео: AVC / High@L4.1 / 960 x 540 / 1 719 Kbps / 16:9
Аудио: Russian: 48 kHz, AC3 Dolby Digital, 3/2 (L,C,R,l,r) + LFE ch, ~384 kbps

Скриншоты



Дополнительная информация о раздаче

Исходник

Assault on Wall Street 2013 1080p Blu-ray AVC DD 5.1-HDWinG

MediaInfo

General
Unique ID                                : 212712229778452329948062549542252102480 (0xA006E2A2275C9292A8F86951BCBCC350)
Complete name                            : D:\25Kadr\Epoha.Alchnosti.2013.Bluray.x264.ac3.rus.by.L.mkv
Format                                   : Matroska
Format version                           : Version 2
File size                                : 1.45 GiB
Duration                                 : 1h 38mn
Overall bit rate                         : 2 105 Kbps
Movie name                               : Эпоха алчности / Bailout: The Age of Greed / Assault on Wall Street [2013 г.] | Рип L | Unionpeer.org
Encoded date                             : UTC 2013-07-09 04:22:06
Writing application                      : mkvmerge v3.2.0 (''Beginnings'') built on Feb 12 2010 16:46:17
Writing library                          : libebml v0.7.9 + libmatroska v0.8.1
Video
ID                                       : 1
Format                                   : AVC
Format/Info                              : Advanced Video Codec
Format profile                           : High@L4.1
Format settings, CABAC                   : Yes
Format settings, ReFrames                : 12 frames
Codec ID                                 : V_MPEG4/ISO/AVC
Duration                                 : 1h 38mn
Bit rate                                 : 1 719 Kbps
Width                                    : 960 pixels
Height                                   : 540 pixels
Display aspect ratio                     : 16:9
Frame rate mode                          : Constant
Frame rate                               : 23.976 fps
Color space                              : YUV
Chroma subsampling                       : 4:2:0
Bit depth                                : 8 bits
Scan type                                : Progressive
Bits/(Pixel*Frame)                       : 0.138
Stream size                              : 1.16 GiB (80%)
Writing library                          : x264 core 133 r2334 a3ac64b
Encoding settings                        : cabac=1 / ref=12 / deblock=1:-2:-1 / analyse=0x3:0x133 / me=umh / subme=10 / psy=1 / psy_rd=1.05:0.10 / mixed_ref=1 / me_range=32 / chroma_me=1 / trellis=2 / 8x8dct=1 / cqm=0 / deadzone=21,11 / fast_pskip=0 / chroma_qp_offset=-4 / threads=6 / lookahead_threads=1 / sliced_threads=0 / nr=0 / decimate=1 / interlaced=0 / bluray_compat=0 / constrained_intra=0 / bframes=13 / b_pyramid=2 / b_adapt=2 / b_bias=0 / direct=3 / weightb=1 / open_gop=0 / weightp=2 / keyint=230 / keyint_min=21 / scenecut=40 / intra_refresh=0 / rc_lookahead=0 / rc=2pass / mbtree=0 / bitrate=1719 / ratetol=1.0 / qcomp=0.70 / qpmin=0 / qpmax=69 / qpstep=4 / cplxblur=20.0 / qblur=0.5 / vbv_maxrate=50000 / vbv_bufsize=62500 / nal_hrd=none / ip_ratio=1.35 / pb_ratio=1.25 / aq=2:0.90
Language                                 : English
Default                                  : No
Forced                                   : No
Audio
ID                                       : 2
Format                                   : AC-3
Format/Info                              : Audio Coding 3
Mode extension                           : CM (complete main)
Format settings, Endianness              : Big
Codec ID                                 : A_AC3
Duration                                 : 1h 38mn
Bit rate mode                            : Constant
Bit rate                                 : 384 Kbps
Channel(s)                               : 6 channels
Channel positions                        : Front: L C R, Side: L R, LFE
Sampling rate                            : 48.0 KHz
Bit depth                                : 16 bits
Compression mode                         : Lossy
Stream size                              : 272 MiB (18%)
Title                                    : DD 5.1 @ 384 kbps - den904
Language                                 : Russian
Default                                  : No
Forced                                   : Yes
Menu
00:00:00.000                             : en:00:00:00.000
00:07:42.629                             : en:00:07:42.629
00:12:35.546                             : en:00:12:35.546
00:19:09.231                             : en:00:19:09.231
00:25:09.842                             : en:00:25:09.842
00:32:47.048                             : en:00:32:47.048
00:38:35.438                             : en:00:38:35.438
00:44:55.484                             : en:00:44:55.484
00:51:40.639                             : en:00:51:40.639
00:58:36.054                             : en:00:58:36.054
01:04:29.032                             : en:01:04:29.032
01:12:43.859                             : en:01:12:43.859
01:17:41.699                             : en:01:17:41.699
01:24:58.802                             : en:01:24:58.802
01:29:15.892                             : en:01:29:15.892
01:36:39.627                             : en:01:36:39.627

Log_x264

---[Information] [08.07.2013 5:08:21] x264 [info]: frame I:1275  Avg QP:15.81  size: 63394  PSNR Mean Y:48.18 U:53.13 V:53.59 Avg:49.28 Global:48.73
---[Information] [08.07.2013 5:08:21] x264 [info]: frame P:28584 Avg QP:18.37  size: 19652  PSNR Mean Y:46.46 U:51.18 V:52.14 Avg:47.52 Global:46.86
---[Information] [08.07.2013 5:08:21] x264 [info]: frame B:112451 Avg QP:20.52  size:  5627  PSNR Mean Y:46.00 U:51.11 V:52.12 Avg:47.11 Global:46.30
Скачать

Скачать торрент!

Как скачивать? · Что такое торрент? · Рейтинг и ограничения

Сайт не распространяет и не хранит электронные версии произведений, а лишь предоставляет доступ к создаваемому пользователями каталогу ссылок на торрент-файлы, которые содержат только списки хеш-сумм

[Профиль] [ЛС]
Показать сообщения:    
Ответить на тему

Текущее время: Сегодня 04:51

Часовой пояс: GMT + 4



Вы не можете начинать темы
Вы не можете отвечать на сообщения
Вы не можете редактировать свои сообщения
Вы не можете удалять свои сообщения
Вы не можете голосовать в опросах
Вы не можете прикреплять файлы к сообщениям
Вы не можете скачивать файлы