Поцелуй проклятой / Kiss of the damned (Ксан Кассаветис / Xan Cassavetes) [2013, США, драма, эротика, ужасы WEB-DLRip] MVO + Sub Rus + Original Eng

Ответить на тему
 
Автор Сообщение

user ®

Стаж: 7 лет 9 месяцев

Сообщений: 20008

Пост Пост: #1 от 17-Июл-2013 09:22

[Цитировать]

Поцелуй проклятой / Kiss of the damned
Её любовь никогда не умрёт
Страна: США
Жанр: артхаус, драма, эротика, ужасы
Год выпуска: 2013 (премьера - 3 мая)
Продолжительность: 01:35:27
Перевод: Любительский (многоголосый закадровый) OK!Prod
Cубтитры: русские - А. Кедров
Оригинальная аудиодорожка: английский
Режиссер: Ксан Кассаветис / Xan Cassavetes
В ролях: Жозефин Де Ла Буме, Роксана Мескида, Майло Вентимилья, Анна Муглалис, Майкл Рапапорт, Райли Кеох
Описание: Перед нами разворачивается любовная история между красивой вампиршей и смертным мужчиной. Долго сдерживаясь, героиня всё же уступает искушению и пьёт кровь любимого, не убивая его. Однако вскоре объявляется сестра вампирши, которая пытается положить конец чужеродным отношениям и спасти род вампиров от угрозы раскрытия.

Сэмпл: http://multi-up.com/853537
Качество видео: WEB-DLRip
Формат видео: AVI
Видео: Xvid 720x304 23.98fps 1871Kbps
Аудио 1: Dolby AC3 48000Hz stereo 160Kbps [русский]
Аудио 2: Dolby AC3 48000Hz stereo 160Kbps [английский]
Формат субтитров: softsub (SRT)

Источник

Kiss.of.the.Damned.2012.720p.WEB-DL.DD5.1.H.264-CtrlHD: 2.99GB

Саундтрек

[url=http://***/forum/viewtopic.php?t=4409826]http://***/forum/viewtopic.php?t=4409826[/url]

MediaInfo

General
Complete name : D:\TORRENTS\Поцелуй проклятой\Kiss of the damned.avi
Format : AVI
Format/Info : Audio Video Interleave
File size : 1.47 GiB
Duration : 1h 35mn
Overall bit rate : 2 205 Kbps
Video
ID : 0
Format : MPEG-4 Visual
Format profile : Advanced Simple@L5
Format settings, BVOP : 2
Format settings, QPel : No
Format settings, GMC : No warppoints
Format settings, Matrix : Default (MPEG)
Codec ID : XVID
Codec ID/Hint : XviD
Duration : 1h 35mn
Bit rate : 1 871 Kbps
Width : 720 pixels
Height : 304 pixels
Display aspect ratio : 2.35:1
Frame rate : 23.976 fps
Color space : YUV
Chroma subsampling : 4:2:0
Bit depth : 8 bits
Scan type : Progressive
Compression mode : Lossy
Bits/(Pixel*Frame) : 0.357
Stream size : 1.25 GiB (85%)
Writing library : XviD 64
Audio #1
ID : 1
Format : AC-3
Format/Info : Audio Coding 3
Mode extension : CM (complete main)
Format settings, Endianness : Big
Codec ID : 2000
Duration : 1h 35mn
Source duration : 1h 35mn
Bit rate mode : Constant
Bit rate : 160 Kbps
Channel(s) : 2 channels
Channel positions : Front: L R
Sampling rate : 48.0 KHz
Bit depth : 16 bits
Compression mode : Lossy
Stream size : 109 MiB (7%)
Alignment : Aligned on interleaves
Interleave, duration : 42 ms (1.00 video frame)
Audio #2
ID : 2
Format : AC-3
Format/Info : Audio Coding 3
Mode extension : CM (complete main)
Format settings, Endianness : Big
Codec ID : 2000
Duration : 1h 35mn
Source duration : 1h 35mn
Bit rate mode : Constant
Bit rate : 160 Kbps
Channel(s) : 2 channels
Channel positions : Front: L R
Sampling rate : 48.0 KHz
Bit depth : 16 bits
Compression mode : Lossy
Stream size : 109 MiB (7%)
Alignment : Aligned on interleaves
Interleave, duration : 42 ms (1.00 video frame)

Скриншот c названием фильма

Скриншоты

Скачать

Скачать торрент!

Как скачивать? · Что такое торрент? · Рейтинг и ограничения

Сайт не распространяет и не хранит электронные версии произведений, а лишь предоставляет доступ к создаваемому пользователями каталогу ссылок на торрент-файлы, которые содержат только списки хеш-сумм

[Профиль] [ЛС]
Показать сообщения:    
Ответить на тему

Текущее время: Сегодня 09:53

Часовой пояс: GMT + 4



Вы не можете начинать темы
Вы не можете отвечать на сообщения
Вы не можете редактировать свои сообщения
Вы не можете удалять свои сообщения
Вы не можете голосовать в опросах
Вы не можете прикреплять файлы к сообщениям
Вы не можете скачивать файлы