Эпоха алчности / Assault on Wall Street / Bailout: The Age of Greed (Уве Болл / Uwe Boll) [2013 г., Канада, триллер, драма, BDRip] VO (den904)

Ответить на тему
 
Автор Сообщение

user ®

Стаж: 7 лет 7 месяцев

Сообщений: 20008

Пост Пост: #1 от 17-Июл-2013 09:22

[Цитировать]

Эпоха алчностиAssault on Wall Street / Bailout: The Age of Greed-«Power. Greed. Justice.»- Год выпуска: 2013
Страна: Канада-Жанр: триллер, драма
Продолжительность: 01:38:55
Перевод: Одноголосый, закадровый (den904)
Субтитры: нет-Режиссер: Уве Болл / Uwe Boll
Продюсер: Дэн Кларк / Dan Clarke, Шон Уильямсон / Shawn Williamson, Джонатан Шор / Jonathan Shore, Эри Тауб / Ari Taub
Композитор: Джессика Де Руйи / Jessica de Rooij-В ролях: Доминик Пёрселл (Jim Baxford), Эрин Карплак (Rosie Baxford), Джон Хёрд (Jeremy Stancroft), Эдвард Ферлонг (Sean), Эрик Робертс (Lawyer Patterson), Кит Дэвид (Freddy), Майкл Паре (Frank), Локлин Манро (Robert), Тайрон Лейтсо (Spalding Smith), Майк Допуд (Tom Allgard), Барклай Хоуп (Ian Marwood), Хезер Вини (Mary Jean)-Описание: История обычного, среднестатистического жителя Нью-Йорка, с хорошей работой и счастливой семьей. После того, как наступает экономический кризис, он лишается работы и будучи в отчаянии он берет оружие и отправляется мстить за свою испорченную жизнь.-kinopoisk.ru: 6.683 (638)
imdb.com: 6.00 (2 637)
MPAA: R - Лицам до 17 лет обязательно присутствие взрослого--Качество: BDRip / Assault on Wall Street 2013 1080p Blu-ray AVC DD 5.1-HDWinG
Контейнер: AVI
Видео: 624x352 (1.77:1), 23.976 fps, XviD build 65 ~914 kbps avg, 0.17 bit/pixel
Аудио: 48 kHz, MPEG Layer 3, 2 ch, ~128.00 kbps avg-

Сравнение

[url=http://***/forum/viewtopic.php?t=4447283]http://***/forum/viewtopic.php?t=4447283[/url] http://screenshotcomparison.com/comparison/31740/picture:0 (детализация немного выше)

-

MediaInfo

General
Complete name                            : E:\Films\Релизы\Боевики\Bailout.The.Age.of.Greed.2013.BDRip.VO.744.All.Films.avi
Format                                   : AVI
Format/Info                              : Audio Video Interleave
File size                                : 744 MiB
Duration                                 : 1h 38mn
Overall bit rate                         : 1 052 Kbps
Movie name                               : Bailout.The.Age.of.Greed.2013.BDRip.VO.All.Films
Director                                 : DIABLO93
Genre                                    : Thriller
Writing application                      : VirtualDubMod 1.5.10.3 | www.virtualdub-fr.org || (build 2550/release)
Original source form/Name                : Movie
Copyright                                : *** (R.G. All Films)
Video
ID                                       : 0
Format                                   : MPEG-4 Visual
Format profile                           : Advanced Simple@L5
Format settings, BVOP                    : 2
Format settings, QPel                    : No
Format settings, GMC                     : No warppoints
Format settings, Matrix                  : Custom
Codec ID                                 : XVID
Codec ID/Hint                            : XviD
Duration                                 : 1h 38mn
Bit rate                                 : 915 Kbps
Width                                    : 624 pixels
Height                                   : 352 pixels
Display aspect ratio                     : 16:9
Frame rate                               : 23.976 fps
Color space                              : YUV
Chroma subsampling                       : 4:2:0
Bit depth                                : 8 bits
Scan type                                : Progressive
Compression mode                         : Lossy
Bits/(Pixel*Frame)                       : 0.174
Stream size                              : 647 MiB (87%)
Writing library                          : XviD 65
Audio
ID                                       : 1
Format                                   : MPEG Audio
Format version                           : Version 1
Format profile                           : Layer 3
Codec ID                                 : 55
Codec ID/Hint                            : MP3
Duration                                 : 1h 38mn
Bit rate mode                            : Constant
Bit rate                                 : 128 Kbps
Channel(s)                               : 2 channels
Sampling rate                            : 48.0 KHz
Compression mode                         : Lossy
Stream size                              : 90.6 MiB (12%)
Alignment                                : Aligned on interleaves
Interleave, duration                     : 42 ms (1.00 video frame)
Interleave, preload duration             : 504 ms
Writing library                          : LAME3.99r
Encoding settings                        : -m s -V 4 -q 2 -lowpass 17 -b 128

-

Сэмпл

Скачать

Скриншоты

Скачать

Скачать торрент!

Как скачивать? · Что такое торрент? · Рейтинг и ограничения

Сайт не распространяет и не хранит электронные версии произведений, а лишь предоставляет доступ к создаваемому пользователями каталогу ссылок на торрент-файлы, которые содержат только списки хеш-сумм

[Профиль] [ЛС]
Показать сообщения:    
Ответить на тему

Текущее время: Сегодня 13:41

Часовой пояс: GMT + 4



Вы не можете начинать темы
Вы не можете отвечать на сообщения
Вы не можете редактировать свои сообщения
Вы не можете удалять свои сообщения
Вы не можете голосовать в опросах
Вы не можете прикреплять файлы к сообщениям
Вы не можете скачивать файлы