Бродяга / The Rambler (Кэлвин Ридер / Calvin Reeder) [2013, США, ужасы, драма, комедия, детектив, HDRip] VO (Den904) + Original Eng

Ответить на тему
 
Автор Сообщение

user ®

Стаж: 7 лет 7 месяцев

Сообщений: 20008

Пост Пост: #1 от 17-Июл-2013 09:22

[Цитировать]

Бродяга / The Rambler
Страна: США
Жанр: ужасы, драма, комедия, детектив
Год выпуска: 2013
Продолжительность: 01:38:39
Перевод: Одноголосый закадровый Den904
Cубтитры: нет
Оригинальная аудиодорожка: английский
Режиссер: Кэлвин Ридер / Calvin Reeder
В ролях: Дермот Малруни
Линдсей Палсифер
Наташа Лионн
Джеймс Кэди
Пол Блотт
Робин Рид
Кристофер Демпси
Кэрри Лазар
Фран Мартоне
Описание: Выйдя из тюрьмы, человек по кличке Бродяга, отправляется в странное путешествие для того, чтобы воссоединиться с родным братом, которого когда-то давно потерял.
Доп. информация: http://www.kinopoisk.ru/film/679351/
http://www.imdb.com/title/tt2381355/
перевод Kon2011
Сэмпл: http://multi-up.com/883584
Качество видео: HDRip
Формат видео: AVI
Видео: 720x304 (2.37:1) 23.976 fps XviD MPEG-4 1532 kbps avg 0.29 bit/pixel 1084.59 Mb
Аудио: 48 kHz AC3 Dolby Digital 3/2 (L,C,R,l,r) + LFE ch 448 kbps 1:38:39.408 / 316.13 Mb
Доп. информация о субтитрах:

MediaInfo

Общее
Полное имя : D:\Brodyaga.2012.L1.HDRip.avi
Формат : AVI
Формат/Информация : Audio Video Interleave
Размер файла : 1,37 Гбайт
Продолжительность : 1 ч. 38 м.
Общий поток : 1990 Кбит/сек
Программа кодирования : VirtualDubMod 1.5.10.2 (build 2540/release)
Библиотека кодирования : VirtualDubMod build 2540/release
Видео
Идентификатор : 0
Формат : MPEG-4 Visual
Профиль формата : Advanced Simple@L5
Параметр BVOP формата : 2
Параметр QPel формата : Нет
Параметр GMC формата : Без точки перехода
Параметр матрицы формата : Default (H.263)
Режим смешивания : Сжатый битовый поток
Идентификатор кодека : XVID
Идентификатор кодека/Подсказка : XviD
Продолжительность : 1 ч. 38 м.
Битрейт : 1532 Кбит/сек
Ширина : 720 пикселей
Высота : 304 пикселя
Соотношение сторон : 2,35:1
Частота кадров : 23,976 кадра/сек
Цветовое пространство : YUV
Субдискретизация насыщенности : 4:2:0
Битовая глубина : 8 бит
Тип развёртки : Прогрессивная
Метод сжатия : С потерями
Бит/(Пиксели*Кадры) : 0.292
Размер потока : 1,06 Гбайт (77%)
Библиотека кодирования : XviD 64
Аудио
Идентификатор : 1
Формат : AC-3
Формат/Информация : Audio Coding 3
Расширение режима : CM (complete main)
Параметр Endianness формата : Big
Идентификатор кодека : 2000
Продолжительность : 1 ч. 38 м.
Вид битрейта : Постоянный
Битрейт : 448 Кбит/сек
Каналы : 6 каналов
Расположение каналов : Front: L C R, Side: L R, LFE
Частота : 48,0 КГц
Битовая глубина : 16 бит
Метод сжатия : С потерями
Размер потока : 316 Мбайт (23%)
Выравнивание : Разделение по промежуткам
Продолжительность промежутка : 42 мс. (1,00 видеокадр)
Время предзагрузки промежутка : 500 мс.

Скриншот c названием фильма

Скриншоты


Скачать

Скачать торрент!

Как скачивать? · Что такое торрент? · Рейтинг и ограничения

Сайт не распространяет и не хранит электронные версии произведений, а лишь предоставляет доступ к создаваемому пользователями каталогу ссылок на торрент-файлы, которые содержат только списки хеш-сумм

[Профиль] [ЛС]
Показать сообщения:    
Ответить на тему

Текущее время: Сегодня 03:53

Часовой пояс: GMT + 4



Вы не можете начинать темы
Вы не можете отвечать на сообщения
Вы не можете редактировать свои сообщения
Вы не можете удалять свои сообщения
Вы не можете голосовать в опросах
Вы не можете прикреплять файлы к сообщениям
Вы не можете скачивать файлы