День святого Валентина / Valentinas Vienas (Симонас Аскелавичус / Simonas Askelavicius, Эдита Кабарайте / Edita Kabaraite, Ричардас Марцинкус / Ricardas Marcinkus) [2013, Литва, мелодрама, комедия, DVDRip] Sub Rus

Ответить на тему
 
Автор Сообщение

user ®

Стаж: 7 лет 7 месяцев

Сообщений: 20008

Пост Пост: #1 от 17-Июл-2013 09:22

[Цитировать]

День святого Валентина / Valentinas Vienas
Страна: Литва
Жанр: мелодрама, комедия
Год выпуска: 2013
Продолжительность: 01:32:24
Перевод: Субтитры
Cубтитры: русские
Оригинальная аудиодорожка: литовский
Режиссер: Симонас Аскелавичус, Эдита Кабарайте, Ричардас Марцинкус / Simonas Askelavicius, Edita Kabaraite, Ricardas Marcinkus
В ролях: Вайда Бюйте
Агне Грудите
Дариус Гумаускас
Мэнтас Янкавичус
Айстис Микевициус
Леонардас Победоносцевас
Витаутас Шапранаускас
Гиедриус Савискас
Описание: Романтическая комедия о нескольких парах молодых людей, встретившихся в Вильнюсе в День святого Валентина.
Доп. информация: http://www.kinopoisk.ru/film/734753/
http://www.imdb.com/title/tt2673258/
Перевод Kon2011
Сэмпл: http://multi-up.com/883608
Качество видео: DVDRip
Формат видео: AVI
Видео: 640x352 (1.82:1) 25 fps DivX Codec 6.8.5/6.9.1 779 kbps avg 0.14 bit/pixel 518.84 Mb
Аудио: 48 kHz MPEG Layer 3 2 ch 116.26 kbps avg 1:32:24.023 / 76.83 Mb
Формат субтитров: hardsub (неотключаемые)
Доп. информация о субтитрах: перевод Kon2011

MediaInfo

Общее
Полное имя : G:\Valentinas.Vienas.2013\ltu-vv rus.avi
Формат : AVI
Формат/Информация : Audio Video Interleave
Размер файла : 601 Мбайт
Продолжительность : 1 ч. 32 м.
Режим общего битрейта : Переменный
Общий поток : 909 Кбит/сек
Программа кодирования : VirtualDubMod 1.5.10.2 (build 2540/release)
Библиотека кодирования : VirtualDubMod build 2540/release
Видео
Идентификатор : 0
Формат : MPEG-4 Visual
Параметр BVOP формата : 1
Параметр QPel формата : Нет
Параметр GMC формата : Без точки перехода
Параметр матрицы формата : Default (H.263)
Режим смешивания : Сжатый битовый поток
Идентификатор кодека : DX50
Идентификатор кодека/Подсказка : DivX 5
Продолжительность : 1 ч. 32 м.
Битрейт : 780 Кбит/сек
Ширина : 640 пикселей
Высота : 352 пикселя
Соотношение сторон : 16:9
Частота кадров : 25,000 кадров/сек
Цветовое пространство : YUV
Субдискретизация насыщенности : 4:2:0
Битовая глубина : 8 бит
Тип развёртки : Прогрессивная
Метод сжатия : С потерями
Бит/(Пиксели*Кадры) : 0.139
Размер потока : 516 Мбайт (86%)
Библиотека кодирования : DivX 6.8.5 (UTC 2009-08-20)
Аудио
Идентификатор : 1
Формат : MPEG Audio
Версия формата : Version 1
Профиль формата : Layer 3
Режим : Joint stereo
Расширение режима : MS Stereo
Идентификатор кодека : 55
Идентификатор кодека/Подсказка : MP3
Продолжительность : 1 ч. 32 м.
Вид битрейта : Переменный
Битрейт : 116 Кбит/сек
Номинальный битрейт : 128 Кбит/сек
Каналы : 2 канала
Частота : 48,0 КГц
Метод сжатия : С потерями
Размер потока : 76,8 Мбайт (13%)
Выравнивание : Соединение по промежуткам
Продолжительность промежутка : 24 мс. (0,60 видеокадр)
Время предзагрузки промежутка : 158 мс.
Библиотека кодирования : LAME3.99r
Настройки программы : -m j -V 4 -q 2 -lowpass 17 --abr 128

Скриншот c названием фильма

Скриншоты


Скачать

Скачать торрент!

Как скачивать? · Что такое торрент? · Рейтинг и ограничения

Сайт не распространяет и не хранит электронные версии произведений, а лишь предоставляет доступ к создаваемому пользователями каталогу ссылок на торрент-файлы, которые содержат только списки хеш-сумм

[Профиль] [ЛС]
Показать сообщения:    
Ответить на тему

Текущее время: Сегодня 04:06

Часовой пояс: GMT + 4



Вы не можете начинать темы
Вы не можете отвечать на сообщения
Вы не можете редактировать свои сообщения
Вы не можете удалять свои сообщения
Вы не можете голосовать в опросах
Вы не можете прикреплять файлы к сообщениям
Вы не можете скачивать файлы