Семейный уик-энд / Family Weekend (Бенжамин Еппс / Benjamin Epps) [2013, США, драма, комедия, DVDRip] Sub Rus + Original Eng

Ответить на тему
 
Автор Сообщение

user ®

Стаж: 7 лет 7 месяцев

Сообщений: 20008

Пост Пост: #1 от 17-Июл-2013 09:22

[Цитировать]

Семейный уик-энд / Family Weekend
Страна: США
Жанр: драма, комедия
Год выпуска: 2013
Продолжительность: 01:45:31
Перевод: Субтитры Kon2011
Cубтитры: русские
Оригинальная аудиодорожка: английский
Режиссер: Бенжамин Еппс / Benjamin Epps
В ролях: Кристин Ченоуэт
Мэттью Модайн
Олеся Рулин
Джои Кинг
Эдди Хэсселл
Ширли Джонс
Хлоя Бриджес
Адам Саундерс
Робби Такер
Питер Гэйл
Описание: Изначально о взаимопонимании и семейной гармонии в этом доме никто даже и не слышал. Еще бы, откуда же ей взяться в логове карьеристки, которая спит и думает только о собственной карьере и успехе и художника-романтика, который далек от житейских проблем и живет в мире творчества. Не смотря на такое различие в темпераментах и образах жизни эти двое умудрились нажить детей и много лет прожить вместе, почти не замечая друг друга и не занимаясь своими чадами. Пока дети были малы и несмышлены, родителям все сходило с рук. Брошенные и недолюбленные дети в прямом смысле слова были предоставлены сами себе. Теперь старшей дочери уже 16, она не ребенок и понимает, что это не нормальная семья, и все должно быть иначе. Она устала от того, что родители, живя под одной крышей каждый находятся в своем мире, но при этом их эгоизме страдают только дети, т.е. она и ее сестры-братья. Понимая, что нужны кардинальные меры, она берет младших в союзники и устраивает предкам настоящий уикенд с испытаниями, который должен образумить их и заставить задуматься о семье.
Доп. информация: http://www.kinopoisk.ru/film/582088/
http://www.imdb.com/title/tt1821426/
Сэмпл: http://multi-up.com/883620
Качество видео: DVDRip
Формат видео: AVI
Видео: 624x256 (2.44:1) 23.976 fps DivX Codec 6.8.5/6.9.1 778 kbps avg 0.20 bit/pixel 591.72 Mb
Аудио: 48 kHz MPEG Layer 3 2 ch 168.34 kbps avg 1:45:31.056 / 127.04 Mb
Формат субтитров: hardsub (неотключаемые)
Доп. информация о субтитрах: перевод Kon2011

MediaInfo

Общее
Полное имя : G:\Family.Weekend.2013.DVDRip.XviD-WiDE\family.weekend.2013.rus.avi
Формат : AVI
Формат/Информация : Audio Video Interleave
Размер файла : 725 Мбайт
Продолжительность : 1 ч. 45 м.
Режим общего битрейта : Переменный
Общий поток : 960 Кбит/сек
Программа кодирования : VirtualDubMod 1.5.10.3 (build 2550/release)
Библиотека кодирования : VirtualDubMod build 2550/release
Видео
Идентификатор : 0
Формат : MPEG-4 Visual
Параметр BVOP формата : 1
Параметр QPel формата : Нет
Параметр GMC формата : Без точки перехода
Параметр матрицы формата : Default (H.263)
Режим смешивания : Сжатый битовый поток
Идентификатор кодека : DX50
Идентификатор кодека/Подсказка : DivX 5
Продолжительность : 1 ч. 45 м.
Битрейт : 779 Кбит/сек
Ширина : 624 пикселя
Высота : 256 пикселей
Соотношение сторон : 2,40:1
Частота кадров : 23,976 кадра/сек
Цветовое пространство : YUV
Субдискретизация насыщенности : 4:2:0
Битовая глубина : 8 бит
Тип развёртки : Прогрессивная
Метод сжатия : С потерями
Бит/(Пиксели*Кадры) : 0.203
Размер потока : 588 Мбайт (81%)
Библиотека кодирования : DivX 6.8.5 (UTC 2009-08-20)
Аудио
Идентификатор : 1
Формат : MPEG Audio
Версия формата : Version 1
Профиль формата : Layer 3
Режим : Joint stereo
Расширение режима : MS Stereo
Идентификатор кодека : 55
Идентификатор кодека/Подсказка : MP3
Продолжительность : 1 ч. 45 м.
Вид битрейта : Переменный
Битрейт : 168 Кбит/сек
Номинальный битрейт : 192 Кбит/сек
Каналы : 2 канала
Частота : 48,0 КГц
Метод сжатия : С потерями
Размер потока : 127 Мбайт (18%)
Выравнивание : Соединение по промежуткам
Продолжительность промежутка : 24 мс. (0,58 видеокадр)
Время предзагрузки промежутка : 109 мс.
Библиотека кодирования : LAME3.99r
Настройки программы : -m j -V 4 -q 2 -lowpass 18.6 --abr 192

Скриншот c названием фильма

Скачать

Скачать торрент!

Как скачивать? · Что такое торрент? · Рейтинг и ограничения

Сайт не распространяет и не хранит электронные версии произведений, а лишь предоставляет доступ к создаваемому пользователями каталогу ссылок на торрент-файлы, которые содержат только списки хеш-сумм

[Профиль] [ЛС]
Показать сообщения:    
Ответить на тему

Текущее время: Сегодня 13:40

Часовой пояс: GMT + 4



Вы не можете начинать темы
Вы не можете отвечать на сообщения
Вы не можете редактировать свои сообщения
Вы не можете удалять свои сообщения
Вы не можете голосовать в опросах
Вы не можете прикреплять файлы к сообщениям
Вы не можете скачивать файлы