G.I. Joe: Бросок кобры 2 / G.I. Joe: Retaliation (Джон М. Чу / Jon Chu) [2013, Фантастика, боевик, триллер, приключения, BDRip-AVC] Dub + Original (Eng) + Sub (rus., eng.)

Ответить на тему
 
Автор Сообщение

user ®

Стаж: 7 лет 7 месяцев

Сообщений: 20008

Пост Пост: #1 от 17-Июл-2013 09:22

[Цитировать]

G.I. Joe: Бросок кобры 2 / G.I. Joe: Retaliation
Страна: США / Di Bonaventura Pictures, Hasbro Inc., Metro-Goldwyn-Mayer (MGM), Paramount Pictures, Skydance
Жанр: Фантастика, боевик, триллер, приключения
Год выпуска: 2013
Продолжительность: 02:03:00
Перевод: Профессиональный (дублированный) чистый звук
Cубтитры: английские, русские (форс.)
Формат субтитров: softsub (SRT)
Оригинальная аудиодорожка: английский-Режиссер: Джон М. Чу / Jon Chu
В ролях: Дуэйн Джонсон, Эдрианн Палики, Брюс Уиллис, Рэй Парк, Ли Бён Хон, Ди Джей Котрона, Джонатан Прайс, Элоди Юнг, Ченнинг Татум, Люк Брейси, Рэй Стивенсон, Уолтон Гоггинс, Арнольд Вослу, Джозеф Маццелло, Ник Эриксон, RZA, Наим Альхерими, Рави Найду, Мэтт Джералд, Дуглас М. Гриффин, Джо Крест, Джеймс Карвилл, Райан Хансен, ДеРэй Дэвис, Нэйтан Такасигэ
Описание: Во второй части отряд «G.I. Joe» вновь объявит вызов группировке «Кобра» и вступит в противостояние с правительством…
Доп. информация: EXTENDED версия длиннее театральной на ~15 минут. Расширенные сцены переведены русскими субтитрами.- -Качество видео: BDRip-AVC [Blu-Ray Remux]
Формат видео: MKV
Видео: H.264, 960x400 (2.40:1), 23.976 fps, 2492 Кbps, 0.271 bit/pixel
Аудио#1: 48 kHz, AC3 Dolby Digital, 3/2 (L,C,R,l,r) + LFE ch, 448.00 kbps | RUS
Аудио#2: 48 kHz, AC3 Dolby Digital, 3/2 (L,C,R,l,r) + LFE ch, 448.00 kbps | ENG

MediaInfo

Общее
Уникальный идентификатор : 214677955755573736970806309332637877874 (0xA1817868222741C2A50398D988DE8672)
Полное имя : G.I.Joe.Brosok.Kobry.2.2013.D.BDRip.x264.potroks.Extended.mkv
Формат : Matroska
Версия формата : Version 2
Размер файла : 2,91 Гбайт
Продолжительность : 2 ч. 3 м.
Общий поток : 3382 Кбит/сек
Название фильма : -=POTROKS=-
Дата кодирования : UTC 2013-07-12 02:03:10
Программа кодирования : mkvmerge v5.9.0 ('On The Loose') built on Dec 15 2012 16:39:58
Библиотека кодирования : libebml v1.3.0 + libmatroska v1.4.0
Видео
Идентификатор : 1
Формат : AVC
Формат/Информация : Advanced Video Codec
Профиль формата : High@L4.1
Параметр CABAC формата : Да
Параметр ReFrames формата : 12 кадров
Идентификатор кодека : V_MPEG4/ISO/AVC
Продолжительность : 2 ч. 3 м.
Битрейт : 2492 Кбит/сек
Ширина : 960 пикселей
Высота : 400 пикселей
Соотношение сторон : 2,40:1
Режим частоты кадров : Постоянный
Частота кадров : 23,976 кадра/сек
Цветовое пространство : YUV
Субдискретизация насыщенности : 4:2:0
Битовая глубина : 8 бит
Тип развёртки : Прогрессивная
Бит/(Пиксели*Кадры) : 0.271
Размер потока : 2,08 Гбайт (72%)
Заголовок : G.I. Joe: Retaliation
Библиотека кодирования : x264 core 125 r2208 d9d2288
Настройки программы : cabac=1 / ref=12 / deblock=1:-2:-1 / analyse=0x3:0x133 / me=umh / subme=11 / psy=1 / psy_rd=1.03:0.00 / mixed_ref=1 / me_range=32 / chroma_me=1 / trellis=2 / 8x8dct=1 / cqm=0 / deadzone=21,11 / fast_pskip=0 / chroma_qp_offset=-2 / threads=9 / lookahead_threads=1 / sliced_threads=0 / nr=0 / decimate=1 / interlaced=0 / bluray_compat=0 / constrained_intra=0 / bframes=13 / b_pyramid=2 / b_adapt=2 / b_bias=0 / direct=3 / weightb=1 / open_gop=0 / weightp=2 / keyint=240 / keyint_min=23 / scenecut=40 / intra_refresh=0 / rc_lookahead=150 / rc=2pass / mbtree=1 / bitrate=2492 / ratetol=1.0 / qcomp=0.70 / qpmin=0 / qpmax=69 / qpstep=4 / cplxblur=20.0 / qblur=0.5 / vbv_maxrate=20000 / vbv_bufsize=25000 / nal_hrd=none / ip_ratio=1.35 / aq=1:0.80
Язык : English
Default : Да
Forced : Нет
Аудио #1
Идентификатор : 2
Формат : AC-3
Формат/Информация : Audio Coding 3
Расширение режима : CM (complete main)
Параметр Endianness формата : Big
Идентификатор кодека : A_AC3
Продолжительность : 2 ч. 3 м.
Вид битрейта : Постоянный
Битрейт : 448 Кбит/сек
Каналы : 6 каналов
Расположение каналов : Front: L C R, Side: L R, LFE
Частота : 48,0 КГц
Битовая глубина : 16 бит
Метод сжатия : С потерями
Размер потока : 394 Мбайт (13%)
Заголовок : чистый звук
Язык : Russian
Default : Да
Forced : Да
Аудио #2
Идентификатор : 3
Формат : AC-3
Формат/Информация : Audio Coding 3
Расширение режима : CM (complete main)
Параметр Endianness формата : Big
Идентификатор кодека : A_AC3
Продолжительность : 2 ч. 3 м.
Вид битрейта : Постоянный
Битрейт : 448 Кбит/сек
Каналы : 6 каналов
Расположение каналов : Front: L C R, Side: L R, LFE
Частота : 48,0 КГц
Битовая глубина : 16 бит
Метод сжатия : С потерями
Размер потока : 394 Мбайт (13%)
Заголовок : riginal | DD 5.1 @ 448 kbps
Язык : English
Default : Нет
Forced : Нет
Текст #1
Идентификатор : 4
Формат : UTF-8
Идентификатор кодека : S_TEXT/UTF8
Идентификатор кодека/Информация : UTF-8 Plain Text
Заголовок : Forced
Язык : Russian
Default : Да
Forced : Да
Текст #2
Идентификатор : 5
Формат : UTF-8
Идентификатор кодека : S_TEXT/UTF8
Идентификатор кодека/Информация : UTF-8 Plain Text
Язык : English
Default : Нет
Forced : Нет
Меню
00:00:00.000 : :Chapter 01
00:11:31.857 : :Chapter 02
00:18:28.607 : :Chapter 03
00:23:49.261 : :Chapter 04
00:31:58.124 : :Chapter 05
00:37:16.943 : :Chapter 06
00:46:13.645 : :Chapter 07
00:48:16.727 : :Chapter 08
00:54:59.629 : :Chapter 09
01:00:31.377 : :Chapter 10
01:08:14.924 : :Chapter 11
01:14:38.474 : :Chapter 12
01:22:21.770 : :Chapter 13
01:26:19.424 : :Chapter 14
01:32:55.486 : :Chapter 15
01:43:06.096 : :Chapter 16
01:53:55.578 : :Chapter 17

log@x.264

x264 [info]: frame I:1755 Avg QP:17.52 size: 62039
x264 [info]: frame P:42207 Avg QP:19.27 size: 24054
x264 [info]: frame B:132989 Avg QP:21.63 size: 8781
x264 [info]: consecutive B-frames: 3.6% 4.2% 10.2% 24.6% 16.7% 30.3% 4.7% 1.6% 1.3% 0.9% 0.5% 0.4% 0.4% 0.7%
x264 [info]: mb I I16..4: 10.4% 65.1% 24.5%
x264 [info]: mb P I16..4: 1.0% 11.4% 2.2% P16..4: 27.8% 33.7% 13.7% 3.1% 0.4% skip: 6.7%
x264 [info]: mb B I16..4: 0.1% 1.6% 0.3% B16..8: 36.0% 20.5% 4.0% direct: 5.8% skip:31.6% L0:42.1% L1:44.4% BI:13.5%
x264 [info]: 8x8 transform intra:76.9% inter:57.7%
x264 [info]: direct mvs spatial:96.9% temporal:3.1%
x264 [info]: coded y,uvDC,uvAC intra: 89.4% 88.4% 69.8% inter: 29.7% 26.4% 7.3%
x264 [info]: i16 v,h,dc,p: 35% 19% 6% 40%
x264 [info]: i8 v,h,dc,ddl,ddr,vr,hd,vl,hu: 7% 7% 5% 11% 16% 14% 15% 12% 13%
x264 [info]: i4 v,h,dc,ddl,ddr,vr,hd,vl,hu: 8% 8% 5% 10% 16% 14% 15% 11% 14%
x264 [info]: i8c dc,h,v,p: 43% 21% 16% 19%
x264 [info]: Weighted P-Frames: Y:5.8% UV:2.4%
x264 [info]: ref P L0: 48.2% 10.9% 17.1% 6.4% 4.7% 3.2% 3.1% 1.6% 1.3% 1.1% 1.0% 1.0% 0.3% 0.0%
x264 [info]: ref B L0: 74.8% 11.3% 5.4% 2.6% 1.6% 1.3% 1.5% 0.6% 0.4% 0.3% 0.1%
x264 [info]: ref B L1: 92.5% 7.5%
x264 [info]: kb/s:2484.33
encoded 176951 frames, 7.31 fps, 2484.33 kb/s
TIME
------------------------------
Общее время кодирования: 9 hour 11 min 21 sec
Файл получился на: 2187.01 mb
Скачать

Скачать торрент!

Как скачивать? · Что такое торрент? · Рейтинг и ограничения

Сайт не распространяет и не хранит электронные версии произведений, а лишь предоставляет доступ к создаваемому пользователями каталогу ссылок на торрент-файлы, которые содержат только списки хеш-сумм

[Профиль] [ЛС]
Показать сообщения:    
Ответить на тему

Текущее время: Сегодня 12:10

Часовой пояс: GMT + 4



Вы не можете начинать темы
Вы не можете отвечать на сообщения
Вы не можете редактировать свои сообщения
Вы не можете удалять свои сообщения
Вы не можете голосовать в опросах
Вы не можете прикреплять файлы к сообщениям
Вы не можете скачивать файлы