Транс / Trance (Дэнни Бойл / Danny Boyle) [2013, триллер, драма, криминал, BDRip-AVC] Чистый звук

Ответить на тему
 
Автор Сообщение

user ®

Стаж: 7 лет 7 месяцев

Сообщений: 20008

Пост Пост: #1 от 17-Июл-2013 09:22

[Цитировать]

Транс / Trance- Страна: Великобритания, Франция, Cloud Eight Films, Decibel Films, Film4
Жанр: Триллер, драма, криминал, детектив
Год выпуска: 2013
Продолжительность:01:41:19
Перевод: Профессиональный (дублированный) [Чистый звук]
Субтитры: нет
Оригинальная дорожка: нет
Главы: есть
Режиссер: Дэнни Бойл / Danny Boyle
В ролях: Джеймс МакЭвой, Венсан Кассель, Розарио Доусон, Дэнни Сапани, Мэттью Кросс, Вахаб Ахмед Шейх, Марк Полтимор, Таппенс Мидлтон, Саймон Кунц, Майкл Шэйффер-Описание: Аукционер Саймон не в силах противостоять искушению — вступает в сговор с бандой грабителей и организует похищение уникального лота стоимостью в миллионы долларов. Однако налет оканчивается не совсем так, как он предполагал вначале. Аукционера оглушают ударом тупого предмета по голове, в результате которого он теряет какие бы то ни было воспоминания о том, что произошло. Разумеется, он также забывает, куда спрятал ценную картину. Пытками добиться ответа от ничего не понимающего Саймона не удается. Тогда главарь банды решает нанять психотерапевта, чтобы она смогла выудить ценную информацию из поврежденного мозга заложника. По мере того, как девушка пробивается сквозь нейронную защиту, ставки растут как на дрожжах. Границы между страстью и жестокостью, реальностью и вымыслом тускнеют и вовсе готовы испариться. В конечном итоге становится не ясно — кто же у кого в заложниках?-IMDB | Кинопоиск | Сэмпл-Качество видео: BDRip-AVC (энкод L)
Формат видео: MKV
Видео: AVC / High@L4.1 / 1032 x 430 / 1 609 Kbps / 2.40:1
Аудио:
Russian: 48 kHz, AC3 Dolby Digital, 3/2 (L,C,R,l,r) + LFE ch, ~448 kbps

Скриншоты



Дополнительная информация о раздаче

Исходник

Trance 2013 1080p Blu-ray AVC DTS-HD MA 5.1-HDWinG

MediaInfo

Общее
Уникальный идентификатор                 : 205298988472930964255135055497245421131 (0x9A73259E341400B09DC19F620B62EE4B)
Полное имя                               : D:\25Kadr\Trans.2013.Bluray.x264.ac3.rus.by.L.mkv
Формат                                   : Matroska
Версия формата                           : Version 2
Размер файла                             : 1,46 Гбайт
Продолжительность                        : 1 ч. 41 м.
Общий поток                              : 2058 Кбит/сек
Название фильма                          : Транс / Trance [2013 г.] | Рип L | Unionpeer.org
Дата кодирования                         : UTC 2013-07-13 04:23:08
Программа кодирования                    : mkvmerge v3.2.0 ('Beginnings') built on Feb 12 2010 16:46:17
Библиотека кодирования                   : libebml v0.7.9 + libmatroska v0.8.1
Видео
Идентификатор                            : 1
Формат                                   : AVC
Формат/Информация                        : Advanced Video Codec
Профиль формата                          : High@L4.1
Параметр CABAC формата                   : Да
Параметр ReFrames формата                : 10 кадров
Идентификатор кодека                     : V_MPEG4/ISO/AVC
Продолжительность                        : 1 ч. 41 м.
Битрейт                                  : 1609 Кбит/сек
Ширина                                   : 1032 пикселя
Высота                                   : 430 пикселей
Соотношение сторон                       : 2,40:1
Режим частоты кадров                     : Постоянный
Частота кадров                           : 23,976 кадра/сек
Цветовое пространство                    : YUV
Субдискретизация насыщенности            : 4:2:0
Битовая глубина                          : 8 бит
Тип развёртки                            : Прогрессивная
Бит/(Пиксели*Кадры)                      : 0.151
Размер потока                            : 1,11 Гбайт (76%)
Библиотека кодирования                   : x264 core 133 r2334 a3ac64b
Настройки программы                      : cabac=1 / ref=10 / deblock=1:-2:-1 / analyse=0x3:0x133 / me=umh / subme=10 / psy=1 / psy_rd=1.05:0.10 / mixed_ref=1 / me_range=32 / chroma_me=1 / trellis=2 / 8x8dct=1 / cqm=0 / deadzone=21,11 / fast_pskip=0 / chroma_qp_offset=-4 / threads=6 / lookahead_threads=1 / sliced_threads=0 / nr=0 / decimate=1 / interlaced=0 / bluray_compat=0 / constrained_intra=0 / bframes=8 / b_pyramid=2 / b_adapt=2 / b_bias=0 / direct=3 / weightb=1 / open_gop=0 / weightp=2 / keyint=230 / keyint_min=21 / scenecut=40 / intra_refresh=0 / rc_lookahead=0 / rc=2pass / mbtree=0 / bitrate=1609 / ratetol=1.0 / qcomp=0.70 / qpmin=0 / qpmax=69 / qpstep=4 / cplxblur=20.0 / qblur=0.5 / vbv_maxrate=50000 / vbv_bufsize=62500 / nal_hrd=none / ip_ratio=1.35 / pb_ratio=1.25 / aq=2:0.90
Язык                                     : English
Default                                  : Нет
Forced                                   : Нет
Аудио
Идентификатор                            : 2
Формат                                   : AC-3
Формат/Информация                        : Audio Coding 3
Расширение режима                        : CM (complete main)
Параметр Endianness формата              : Big
Идентификатор кодека                     : A_AC3
Продолжительность                        : 1 ч. 41 м.
Вид битрейта                             : Постоянный
Битрейт                                  : 448 Кбит/сек
Каналы                                   : 6 каналов
Расположение каналов                     : Front: L C R, Side: L R, LFE
Частота                                  : 48,0 КГц
Битовая глубина                          : 16 бит
Метод сжатия                             : С потерями
Размер потока                            : 325 Мбайт (22%)
Заголовок                                : Дубляж
Язык                                     : Russian
Default                                  : Да
Forced                                   : Нет
Меню
00:00:00.000                             : en:00:00:00.000
00:04:05.871                             : en:00:04:05.871
00:08:18.832                             : en:00:08:18.832
00:10:09.859                             : en:00:10:09.859
00:13:06.786                             : en:00:13:06.786
00:15:42.650                             : en:00:15:42.650
00:17:33.678                             : en:00:17:33.678
00:21:57.274                             : en:00:21:57.274
00:23:46.634                             : en:00:23:46.634
00:25:54.720                             : en:00:25:54.720
00:28:11.398                             : en:00:28:11.398
00:31:08.533                             : en:00:31:08.533
00:33:40.644                             : en:00:33:40.644
00:36:31.272                             : en:00:36:31.272
00:39:10.723                             : en:00:39:10.723
00:41:49.340                             : en:00:41:49.340
00:45:58.881                             : en:00:45:58.881
00:51:51.483                             : en:00:51:51.483
00:59:00.287                             : en:00:59:00.287
01:02:10.894                             : en:01:02:10.894
01:08:08.584                             : en:01:08:08.584
01:12:06.822                             : en:01:12:06.822
01:14:36.138                             : en:01:14:36.138
01:16:13.152                             : en:01:16:13.152
01:25:36.548                             : en:01:25:36.548
01:28:16.291                             : en:01:28:16.291
01:31:34.781                             : en:01:31:34.781
01:35:32.769                             : en:01:35:32.769

Log_x264

---[Information] [09.07.2013 4:29:07] x264 [info]: frame I:1459  Avg QP:16.74  size: 57362  PSNR Mean Y:47.33 U:50.92 V:50.83 Avg:48.05 Global:47.40
---[Information] [09.07.2013 4:29:07] x264 [info]: frame P:31961 Avg QP:19.53  size: 16821  PSNR Mean Y:46.08 U:50.19 V:50.03 Avg:46.77 Global:46.04
---[Information] [09.07.2013 4:29:07] x264 [info]: frame B:112332 Avg QP:21.48  size:  5351  PSNR Mean Y:45.64 U:50.71 V:50.46 Avg:46.35 Global:45.53
Скачать

Скачать торрент!

Как скачивать? · Что такое торрент? · Рейтинг и ограничения

Сайт не распространяет и не хранит электронные версии произведений, а лишь предоставляет доступ к создаваемому пользователями каталогу ссылок на торрент-файлы, которые содержат только списки хеш-сумм

[Профиль] [ЛС]
Показать сообщения:    
Ответить на тему

Текущее время: Сегодня 22:24

Часовой пояс: GMT + 4



Вы не можете начинать темы
Вы не можете отвечать на сообщения
Вы не можете редактировать свои сообщения
Вы не можете удалять свои сообщения
Вы не можете голосовать в опросах
Вы не можете прикреплять файлы к сообщениям
Вы не можете скачивать файлы