O3: Beликий и Ужacный / Оz thе Grеаt аnd Роwеrful (Cэm Pэйmи / Sам Rаiмi) [2013, США, фэнтези, приключения, комедия, семейный, BDRip] Dub + Original Eng + sub (RusF, Rus, Ukr, UkrF. Eng, Eng SDH, Eng SDH Colored)

Ответить на тему
 
Автор Сообщение

user ®

Стаж: 7 лет 7 месяцев

Сообщений: 20008

Пост Пост: #1 от 17-Июл-2013 09:22

[Цитировать]

O3: Beликий и Ужacный / Оz thе Grеаt аnd Роwеrful- Год выпуска: 2013
Выпущено: США
Жанр: фэнтези, приключения, комедия, семейный
Продолжительность: 02:10:29
Перевод: Профессиональный (полное дублирование) BD CEE
+ Оригинальная звуковая дорожка (отдельно)
Субтитры: Русские (полные, форсированные), Украинские (полные, форсированные), Английские (полные, SDH, SDH Colored) (внешние srt*)-Режиссер: Cэm Pэйmи / Sам Rаiмi
В ролях: Джеймс Франко, Мила Кунис, Рейчел Вайс, Мишель Уильямс, Зак Брафф, Билл Коббс, Джои Кинг, Тони Кокс, Стивен Р. Харт, Эбигейл Спенсер
О фильме: Когда ураган забрасывает циркового фокусника Оскара Диггса из пыльного Канзаса в волшебную страну Оз, склонный к мошенничеству циркач полагает, что он поймал удачу за хвост — ведь с помощью своих трюков он с легкостью может добыть в новых землях и славу и богатство.
Однако его ждёт встреча с тремя чародейками, Теодорой, Эванорой и Глиндой, которые сомневаются в том, тот ли это великий волшебник, появления которого ждали легковерные жители страны Оз. Волей-неволей, пришелец оказывается втянутым в противостояние эпического масштаба, и ему приходится использовать весь свой «магический» арсенал, с добавлением толики настоящего волшебства.
В ситуации выбора между Добром и Злом, Оскару Диггсу предстоит не только стать Великим и Ужасным Волшебником из Страны Оз, но и немного измениться к лучшему.
Релиз:
Автор: kingsize87
Качество: BDRip (источник: CHDBits / Blu-ray US / 1080p)
Формат: AVI
Видео: 720x304 (2.37:1), 23,976 fps, XviD build 65 ~1936 kbps avg, 0.37 bit/pixel
Аудио 1: 48 kHz, AC3, 3/2 (L,C,R,l,r) + LFE ch, ~448.00 kbps avg rus
Аудио 2: 48 kHz, AC3, 3/2 (L,C,R,l,r) + LFE ch, ~448.00 kbps avg eng (отдельно)
Размер: 2231.69 Mb (1/2 DVD-R)
Скачать: Семпл-

Скриншоты


-

Mi


Формат : AVI
Формат/Информация : Audio Video Interleave
Профиль формата : OpenDML
Размер файла : 2,18 Гбайт
Продолжительность : 2 ч. 10 м.
Общий поток : 2391 Кбит/сек
Название фильма : Оз: Великий и Ужасный / Oz the Great and Powerful (2013) BDRip
Режиссёр : kingsize87
Программа кодирования : VirtualDubMod 1.5.10.2 (build 2540/release)
Библиотека кодирования : VirtualDubMod build 2540/release
Правообладатель : HQCLUB
Примечание : 07.07.2013
Видео
Идентификатор : 0
Формат : MPEG-4 Visual
Профиль формата : Advanced Simple@L5
Параметр BVOP формата : 1
Параметр QPel формата : Нет
Параметр GMC формата : Без точки перехода
Параметр матрицы формата : Выборочная
Идентификатор кодека : XVID
Идентификатор кодека/Подсказка : XviD
Продолжительность : 2 ч. 10 м.
Битрейт : 1931 Кбит/сек
Ширина : 720 пикселей
Высота : 304 пикселя
Соотношение сторон : 2,35:1
Частота кадров : 23,976 кадра/сек
Цветовое пространство : YUV
Субдискретизация насыщенности : 4:2:0
Битовая глубина : 8 бит
Тип развёртки : Прогрессивная
Метод сжатия : С потерями
Бит/(Пиксели*Кадры) : 0.368
Размер потока : 1,76 Гбайт (81%)
Библиотека кодирования : XviD 65
Аудио
Идентификатор : 1
Формат : AC-3
Формат/Информация : Audio Coding 3
Расширение режима : CM (complete main)
Параметр Endianness формата : Big
Идентификатор кодека : 2000
Продолжительность : 2 ч. 10 м.
Вид битрейта : Постоянный
Битрейт : 448 Кбит/сек
Каналы : 6 каналов
Расположение каналов : Front: L C R, Side: L R, LFE
Частота : 48,0 КГц
Битовая глубина : 16 бит
Метод сжатия : С потерями
Размер потока : 418 Мбайт (19%)
Выравнивание : Разделение по промежуткам
Продолжительность промежутка : 42 мс. (1,00 видеокадр)
Время предзагрузки промежутка : 500 мс.
Скачать

Скачать торрент!

Как скачивать? · Что такое торрент? · Рейтинг и ограничения

Сайт не распространяет и не хранит электронные версии произведений, а лишь предоставляет доступ к создаваемому пользователями каталогу ссылок на торрент-файлы, которые содержат только списки хеш-сумм

[Профиль] [ЛС]
Показать сообщения:    
Ответить на тему

Текущее время: Сегодня 20:29

Часовой пояс: GMT + 4



Вы не можете начинать темы
Вы не можете отвечать на сообщения
Вы не можете редактировать свои сообщения
Вы не можете удалять свои сообщения
Вы не можете голосовать в опросах
Вы не можете прикреплять файлы к сообщениям
Вы не можете скачивать файлы