G.I. Joe: Бросок кобры 2 / G.I. Joe: Retaliation (Джон М. Чу / Jon Chu) [2013, фантастика, боевик, триллер, HDRip] DUB Teatrical Cut

Ответить на тему
 
Автор Сообщение

user ®

Стаж: 7 лет 7 месяцев

Сообщений: 20008

Пост Пост: #1 от 15-Июл-2013 08:44

[Цитировать]

G.I. Joe: Бросок кобры 2 / G.I. Joe: Retaliation / Teatrical Cut
-Страна: США
Жанр: фантастика, боевик, триллер, приключения
Год выпуска: 2013
Продолжительность: 01:50:15-Перевод: Профессиональный (дублированный) /Лицензия/
Cубтитры: нет-Режиссер: Джон М. Чу / Jon Chu-В ролях: Дуэйн Джонсон / Dwayne Johnson (Roadblock), Эдрианн Палики / Adrianne Palicki (Jaye), Брюс Уиллис / Bruce Willis (General Joe Colton), Рэй Парк / Ray Park (Snake Eyes), Ли Бён Хон / Lee Byeong Heon (Storm Shadow), Д.Дж. Котрона / D.J. Cotrona (Flint), Джонатан Прайс / Jonathan Pryce (President), Элоди Юнг / Elodie Yung (Jinx), Ченнинг Татум / Channing Tatum (Duke), Люк Брейси / Luke Bracey (Cobra Commander), Рэй Стивенсон / Ray Stevenson (Firefly), Уолтон Гоггинс / Walton Goggins (Warden Nigel James)-Описание:
Во второй части отряд «G.I. Joe» вновь объявит вызов группировке «Кобра» и вступит в противостояние с правительством...
- -Качество видео: HDRip /исходник: G.I.Joe.Retaliation.2013.Theatrical.Cut.BluRay.Rus.Eng.HDCLUB/
Формат видео: AVI-Видео: XviD / 720 x 304 / 2.37:1 / 1687 kbps / 23,976 fps
Аудио: AC3 Dolby Digital / 48 KHz / 192 kbps / 2/0 (L,R) ch /RUS/-СЭМПЛ-

MediaInfo

General
Complete name : I:\G.I.Joe.Brosok.Kobry.2.2013.Theatrical.Cut.DUB.HDRip.XviD.AC3.-Vaippp.avi
Format : AVI
Format/Info : Audio Video Interleave
File size : 1.45 GiB
Duration : 1h 50mn
Overall bit rate : 1 889 Kbps
Movie name : G.I. Joe: Retaliation / Theatrical Cut (2013)
Director : Vaippp
Genre : Action/Thriller
Writing application : VirtualDubModRus 1.5.10.2 (build 2542/release)
Original source form/Name : Movie
Comment : HDRip
Video
ID : 0
Format : MPEG-4 Visual
Format profile : Advanced Simple@L5
Format settings, BVOP : 2
Format settings, QPel : No
Format settings, GMC : No warppoints
Format settings, Matrix : Custom
Codec ID : XVID
Codec ID/Hint : XviD
Duration : 1h 50mn
Bit rate : 1 687 Kbps
Width : 720 pixels
Height : 304 pixels
Display aspect ratio : 2.35:1
Frame rate : 23.976 fps
Color space : YUV
Chroma subsampling : 4:2:0
Bit depth : 8 bits
Scan type : Progressive
Compression mode : Lossy
Bits/(Pixel*Frame) : 0.321
Stream size : 1.30 GiB (89%)
Writing library : XviD 73
Audio
ID : 1
Format : AC-3
Format/Info : Audio Coding 3
Mode extension : CM (complete main)
Format settings, Endianness : Big
Codec ID : 2000
Duration : 1h 50mn
Bit rate mode : Constant
Bit rate : 192 Kbps
Channel(s) : 2 channels
Channel positions : Front: L R
Sampling rate : 48.0 KHz
Bit depth : 16 bits
Compression mode : Lossy
Stream size : 151 MiB (10%)
Alignment : Split accross interleaves
Interleave, duration : 42 ms (1.00 video frame)
Interleave, preload duration : 500 ms

Скриншоты



Скачать

Скачать торрент!

Как скачивать? · Что такое торрент? · Рейтинг и ограничения

Сайт не распространяет и не хранит электронные версии произведений, а лишь предоставляет доступ к создаваемому пользователями каталогу ссылок на торрент-файлы, которые содержат только списки хеш-сумм

[Профиль] [ЛС]
Показать сообщения:    
Ответить на тему

Текущее время: Сегодня 04:20

Часовой пояс: GMT + 4



Вы не можете начинать темы
Вы не можете отвечать на сообщения
Вы не можете редактировать свои сообщения
Вы не можете удалять свои сообщения
Вы не можете голосовать в опросах
Вы не можете прикреплять файлы к сообщениям
Вы не можете скачивать файлы