Акулонепроницаемый / Sharkproof / Almost Sharkproof (Саймон Чан / Simon Chan, Джо Рубалькаба / Joe Rubalcaba) [2013, США, комедийный боевик, DVB] DVO (НТВ+)

Ответить на тему
 
Автор Сообщение

user ®

Стаж: 7 лет 7 месяцев

Сообщений: 20008

Пост Пост: #1 от 15-Июл-2013 08:44

[Цитировать]

Акулонепроницаемый
Sharkproof / Almost Sharkproof- Страна: США
Жанр: комедийный боевик
Год выпуска: 2013
Продолжительность: 01:18:55
Перевод: Профессиональный (двухголосый закадровый) НТВ+
Cубтитры: нет
Оригинальная аудиодорожка: нетРежиссер: Саймон Чан / Simon Chan, Джо Рубалькаба / Joe Rubalcaba
В ролях: Кэмерон Ван Хой / Cameron Van Hoy (Vince Valley), Майкл Дрейер / Michael Drayer (Freddy Krebs), Джон Ловитц / Jon Lovitz (Max), Кинга Киржек / Kinga Kierzek (Isabella), Джоан Северанс / Joan Severance (Connie Krebs), Деннис Хэскинс / Dennis Haskins (Pat Krebs), Кен Давитьян / Ken Davitian (Yuri)
Описание: Как ни пытаются друзья протолкнуть свое изобретение – гидрокостюм, спасающий от акул, ни один бизнесмен не дает денег. Кажется, все идет прахом. Неожиданно на пути приятелей появляется красивая молодая женщина, и друзья влюбляются в неё. Дело заходит так далеко, что женщину приходится спасать от рук бандитов и участвовать в перестрелке. И вот тут гидрокостюмы выручают, защищая от пуль лучше бронежилета. (анонс канала "Премьера")
Доп. информация: Запись со спутника (канал "Премьера").
Информация: http://www.imdb.com/title/tt2288017/
Сэмпл: http://multi-up.com/882640
Качество видео: DVB
Формат видео: MPEG-PS [url=http://***/forum/viewtopic.php?p=58098458#58098458](См. при проблемах с просмотром видео)[/url]
Видео: MPEG Video 2, 720x576@1024x576 (16:9), 25 fps, ~1823 kbps avg, 0.176 bit/pixel
Аудио: 48 kHz, MPEG Audio 2, 2 ch, ~192.00 kbps avg

MediaInfo

Полное имя : H:\My Torrents\[apreder]Almost_Sharkproof(2013)DVB.mpgФормат : MPEG-PSРазмер файла : 1,13 ГбайтПродолжительность : 1 ч. 18 м.Режим общего битрейта : ПеременныйОбщий поток : 2056 Кбит/сек
ВидеоИдентификатор : 224 (0xE0)Формат : MPEG VideoВерсия формата : Version 2Профиль формата : Main@MainПараметр BVOP формата : ДаПараметр матрицы формата : ВыборочнаяПараметр GOP формата : VariableПродолжительность : 1 ч. 18 м.Вид битрейта : ПеременныйБитрейт : 1823 Кбит/секШирина : 720 пикселейВысота : 576 пикселейСоотношение сторон : 16:9Частота кадров : 25,000 кадров/секСтандарт вещания : PALЦветовое пространство : YUVСубдискретизация насыщенности : 4:2:0Битовая глубина : 8 битТип развёртки : ЧересстрочнаяПорядок развёртки : Верхнее поле первоеМетод сжатия : С потерямиБит/(Пиксели*Кадры) : 0.176TimeCode_FirstFrame : 00:00:00:00TimeCode_Source : Group of pictures headerРазмер потока : 1,01 Гбайт (89%)
АудиоИдентификатор : 192 (0xC0)Формат : MPEG AudioВерсия формата : Version 1Профиль формата : Layer 2Продолжительность : 1 ч. 18 м.Вид битрейта : ПостоянныйБитрейт : 192 Кбит/секКаналы : 2 каналаЧастота : 48,0 КГцМетод сжатия : С потерямиРазмер потока : 108 Мбайт (9%)

Скриншот c названием фильма

Скриншоты


Резервные скриншоты


-843/825√
Скачать

Скачать торрент!

Как скачивать? · Что такое торрент? · Рейтинг и ограничения

Сайт не распространяет и не хранит электронные версии произведений, а лишь предоставляет доступ к создаваемому пользователями каталогу ссылок на торрент-файлы, которые содержат только списки хеш-сумм

[Профиль] [ЛС]
Показать сообщения:    
Ответить на тему

Текущее время: Сегодня 04:22

Часовой пояс: GMT + 4



Вы не можете начинать темы
Вы не можете отвечать на сообщения
Вы не можете редактировать свои сообщения
Вы не можете удалять свои сообщения
Вы не можете голосовать в опросах
Вы не можете прикреплять файлы к сообщениям
Вы не можете скачивать файлы