Муви 43 / Movie 43 (Стивен Брилл / Steven Brill, Питер Фаррелли / Peter Farrelly, Боб Оденкирк / Bob Odenkirk) [2013 г., США, комедия, BDRip] DUB

Ответить на тему
 
Автор Сообщение

user ®

Стаж: 7 лет 7 месяцев

Сообщений: 20008

Пост Пост: #1 от 08-Июл-2013 09:20

[Цитировать]

Муви 43 / Movie 43 -Страна: США
Жанр: комедия
Год выпуска: 2013
Продолжительность: 01:39:30-Перевод: Профессиональный (полное дублирование)
Cубтитры: нет-Режиссер: Стивен Брилл / Steven Brill, Питер Фаррелли / Peter Farrelly, Боб Оденкирк / Bob Odenkirk
В ролях: Холли Берри, Джерард Батлер, Анна Фэрис, Хью Джекман, Джонни Ноксвилл, Кристофер Минц-Плассе, Шонн Уильям Скотт, Эмма Стоун, Кейт Уинслет, Хлоя Моретц, Элизабет Бэнкс, Кристен Белл, Наоми Уоттс, Бобби Каннавейл, Ума Турман, Крис Прэтт, Джош Дюамель, Ричард Гир, Кейт Босворт, Патрик Варбертон, Лив Шрайбер, Джастин Лонг, Лесли Бибб, Джейсон Судейкис, Киран Калкин, Джек МакБрайер, Терренс Ховард, Тони Шэлоуб, Стивен Мерчант, Джимми Беннетт, Мэтт Уолш, Джереми Аллен Уайт, Аасиф Мандви, Мартин Клеббэ, Бет Литтлфорд, Эмили Элин Линд, Марк Л. Янг, Саид Бадрия, Джули Энн
Описание: Возьмите прикольного режиссера, добавьте к нему великолепный актерский состав, смешайте с хорошей порцией двусмысленных шуточек, отполируйте безбашенностью, и тихо отойдите в сторонку. Комедийный коктейль «MOVIE 43» от одного из братьев Фаррелли – режиссера Питера Фаррелли сметает все границы дозволенности. Это одна из самых шокирующих, оригинальных и острых комедий, которые были когда-либо созданы.
25 cуперзвезд первой величины — в комедийном проекте, который состоит из двух десятков мини-новелл с нескончаемым потоком шуток, гэгов, острот и пародий, о страстях и страстишках человеческих.-Внимание: перед сеансом соберите в кулак свои нервы, пищеварение и чувство юмора.
Качество видео: BDRip [BD Remux 1080p hdreactor]
Формат видео: AVI-Video: 688x384 (1.79:1), 24.000 fps, XviD build 50 ~913 kbps avg, 0.14 bit/pixel
Audio: 48 kHz, MPEG Layer 3, 2 ch, ~128.00 kbps avg | DUB-- --

MediaInfo

General
Complete name                            : D:\ФИЛЬМЫ\Movie.43.2013.BDRip.andre90.avi
Format                                   : AVI
Format/Info                              : Audio Video Interleave
File size                                : 748 MiB
Duration                                 : 1h 39mn
Overall bit rate                         : 1 051 Kbps
Writing application                      : VirtualDubMod 1.5.10.2 (build 2540/release)
Writing library                          : VirtualDubMod build 2540/release
Video
ID                                       : 0
Format                                   : MPEG-4 Visual
Format profile                           : Advanced Simple@L5
Format settings, BVOP                    : 1
Format settings, QPel                    : No
Format settings, GMC                     : No warppoints
Format settings, Matrix                  : Default (H.263)
Codec ID                                 : XVID
Codec ID/Hint                            : XviD
Duration                                 : 1h 39mn
Bit rate                                 : 914 Kbps
Width                                    : 688 pixels
Height                                   : 384 pixels
Display aspect ratio                     : 16:9
Frame rate                               : 24.000 fps
Color space                              : YUV
Chroma subsampling                       : 4:2:0
Bit depth                                : 8 bits
Scan type                                : Progressive
Compression mode                         : Lossy
Bits/(Pixel*Frame)                       : 0.144
Stream size                              : 650 MiB (87%)
Writing library                          : XviD 1.2.1 (UTC 2008-12-04)
Audio
ID                                       : 1
Format                                   : MPEG Audio
Format version                           : Version 1
Format profile                           : Layer 3
Codec ID                                 : 55
Codec ID/Hint                            : MP3
Duration                                 : 1h 39mn
Bit rate mode                            : Constant
Bit rate                                 : 128 Kbps
Channel(s)                               : 2 channels
Sampling rate                            : 48.0 KHz
Compression mode                         : Lossy
Stream size                              : 91.1 MiB (12%)
Alignment                                : Aligned on interleaves
Interleave, duration                     : 42 ms (1.00 video frame)
Interleave, preload duration             : 504 ms
Writing library                          : LAME3.98r
Encoding settings                        : -m s -V 4 -q 2 -lowpass 17 -b 128

Сравнения:

[url=http://***/forum/viewtopic.php?t=4361457]http://***/forum/viewtopic.php?t=4361457[/url]
http://screenshotcomparison.com/comparison/10998
Скачать

Скачать торрент!

Как скачивать? · Что такое торрент? · Рейтинг и ограничения

Сайт не распространяет и не хранит электронные версии произведений, а лишь предоставляет доступ к создаваемому пользователями каталогу ссылок на торрент-файлы, которые содержат только списки хеш-сумм

[Профиль] [ЛС]
Показать сообщения:    
Ответить на тему

Текущее время: Сегодня 08:06

Часовой пояс: GMT + 4



Вы не можете начинать темы
Вы не можете отвечать на сообщения
Вы не можете редактировать свои сообщения
Вы не можете удалять свои сообщения
Вы не можете голосовать в опросах
Вы не можете прикреплять файлы к сообщениям
Вы не можете скачивать файлы