Порочные игры / Stoker (Пак Чхан Ук / Park Chan Wook) [2013, Великобритания, США, Триллер, драма, детектив, BDRip-AVC] VO (перевод MartinaG / озвучка Doctor Joker) + Sub Rus + Original Eng

Ответить на тему
 
Автор Сообщение

user ®

Стаж: 7 лет 7 месяцев

Сообщений: 20008

Пост Пост: #1 от 08-Июл-2013 09:20

[Цитировать]

Порочные игры / Stoker
Страна: Великобритания, США
Жанр: Триллер, драма, детектив
Год выпуска: 2013
Продолжительность: 01:38:55
Перевод: Одноголосый закадровый перевод MartinaG / озвучка Doctor_Joker
Cубтитры: русские
Оригинальная аудиодорожка: английский
Режиссер: Пак Чхан Ук / Park Chan Wook
В ролях: Миа Васиковска, Мэттью Гуд, Николь Кидман, Дэвид Элфорд, Пег Аллен, Лорен Э., Роман Филлис, Соммервиль Хармони Корин, Лукас Тилл, Олден Эйренрайк
Описание: В день похорон преуспевающего архитектора Ричарда Стокера к родственникам усопшего приезжает его брат, Чарли Стокер, приходящийся заодно дядей девушке по имени Индия. Мать девушки предлагает дяде остаться на какое-то время. Но ни мать, ни Индия, не догадываются, чем для них обернётся присутствие в доме дядюшки Чарли и как переменится в результате невинная Индия. Вот только такая ли она уж невинная…?
Доп. информация: Работа с видео - Potroks. Работа со звуком - Perevodman.
Сэмпл: http://multi-up.com/874346
Качество видео: BDRip-AVC
Формат видео: MKV
Видео: H.264, 1280x534 (2,40:1), 23,976 кадр/сек, 2266 Кбит/сек, 0.138 bit/pixel
Аудио: 48 kHz, AC3
Аудио 2: 48 kHz, AC3
Формат субтитров: softsub (SRT)

MediaInfo

Общее
Уникальный идентификатор : 204625511194126338989545517414088942421 (0x99F1709FDEDDD8B8887E4A5D1023A355)
Полное имя : E:\МОНТАЖ\Stoker.2013.x264.Doctor.Joker.mkv
Формат : Matroska
Версия формата : Version 4 / Version 2
Размер файла : 2,19 Гбайт
Продолжительность : 1 ч. 38 м.
Общий поток : 3164 Кбит/сек
Название фильма : -=POTROKS=-
Дата кодирования : UTC 2013-06-09 13:31:41
Программа кодирования : mkvmerge v6.0.0 ('Coming Up For Air') built on Jan 20 2013 09:52:00
Библиотека кодирования : libebml v1.3.0 + libmatroska v1.4.0
Видео
Идентификатор : 1
Формат : AVC
Формат/Информация : Advanced Video Codec
Профиль формата : High@L4.1
Параметр CABAC формата : Да
Параметр ReFrames формата : 11 кадров
Идентификатор кодека : V_MPEG4/ISO/AVC
Продолжительность : 1 ч. 38 м.
Битрейт : 2266 Кбит/сек
Ширина : 1280 пикселей
Высота : 534 пикселя
Соотношение сторон : 2,40:1
Режим частоты кадров : Постоянный
Частота кадров : 23,976 кадра/сек
Цветовое пространство : YUV
Субдискретизация насыщенности : 4:2:0
Битовая глубина : 8 бит
Тип развёртки : Прогрессивная
Бит/(Пиксели*Кадры) : 0.138
Размер потока : 1,52 Гбайт (70%)
Заголовок : х/ф Стокеры
Библиотека кодирования : x264 core 125 r2208 d9d2288
Настройки программы : cabac=1 / ref=11 / deblock=1:-3:-2 / analyse=0x3:0x133 / me=umh / subme=11 / psy=1 / psy_rd=1.08:0.04 / mixed_ref=1 / me_range=32 / chroma_me=1 / trellis=2 / 8x8dct=1 / cqm=0 / deadzone=21,11 / fast_pskip=0 / chroma_qp_offset=-3 / threads=9 / lookahead_threads=1 / sliced_threads=0 / nr=0 / decimate=1 / interlaced=0 / bluray_compat=0 / constrained_intra=0 / bframes=12 / b_pyramid=2 / b_adapt=2 / b_bias=0 / direct=3 / weightb=1 / open_gop=0 / weightp=2 / keyint=240 / keyint_min=23 / scenecut=40 / intra_refresh=0 / rc_lookahead=150 / rc=2pass / mbtree=1 / bitrate=2266 / ratetol=1.0 / qcomp=0.70 / qpmin=0 / qpmax=69 / qpstep=4 / cplxblur=20.0 / qblur=0.5 / vbv_maxrate=50000 / vbv_bufsize=62500 / nal_hrd=none / ip_ratio=1.35 / aq=2:0.70
Язык : English
Default : Да
Forced : Нет
Аудио #1
Идентификатор : 2
Формат : AC-3
Формат/Информация : Audio Coding 3
Расширение режима : CM (complete main)
Параметр Endianness формата : Big
Идентификатор кодека : A_AC3
Продолжительность : 1 ч. 38 м.
Вид битрейта : ПостоянныйБитрейт : 448 Кбит/сек
Каналы : 6 каналов
Расположение каналов : Front: L C R, Side: L R, LFE
Частота : 48,0 КГц
Битовая глубина : 16 бит
Метод сжатия : С потерями
Размер потока : 317 Мбайт (14%)
Заголовок : Озвучка Doctor Joker
Язык : Russian
Default : Да
Forced : Нет
Аудио #2
Идентификатор : 3
Формат : AC-3
Формат/Информация : Audio Coding 3
Расширение режима : CM (complete main)
Параметр Endianness формата : Big
Идентификатор кодека : A_AC3
Продолжительность : 1 ч. 38 м.
Вид битрейта : Постоянный
Битрейт : 448 Кбит/сек
Каналы : 6 каналов
Расположение каналов : Front: L C R, Side: L R, LFE
Частота : 48,0 КГц
Битовая глубина : 16 бит
Метод сжатия : С потерями
Размер потока : 317 Мбайт (14%)
Заголовок : Original
Язык : English
Default : Нет
Forced : Нет
Текст
Идентификатор : 4
Формат : UTF-8
Идентификатор кодека : S_TEXT/UTF8
Идентификатор кодека/Информация : UTF-8 Plain Text
Заголовок : Перевод MartinaG
Язык : Russian
Default : Нет
Forced : Нет

Скриншот c названием фильма

Скриншоты



Скачать

Скачать торрент!

Как скачивать? · Что такое торрент? · Рейтинг и ограничения

Сайт не распространяет и не хранит электронные версии произведений, а лишь предоставляет доступ к создаваемому пользователями каталогу ссылок на торрент-файлы, которые содержат только списки хеш-сумм

[Профиль] [ЛС]
Показать сообщения:    
Ответить на тему

Текущее время: Сегодня 14:10

Часовой пояс: GMT + 4



Вы не можете начинать темы
Вы не можете отвечать на сообщения
Вы не можете редактировать свои сообщения
Вы не можете удалять свои сообщения
Вы не можете голосовать в опросах
Вы не можете прикреплять файлы к сообщениям
Вы не можете скачивать файлы