Тревожный вызов / The Call (Брэд Андерсон / Brad Anderson) [2013, Триллер, BDRip-AVC] Dub (R5) + Original (Eng) + Sub (eng)

Ответить на тему
 
Автор Сообщение

user ®

Стаж: 7 лет 7 месяцев

Сообщений: 20008

Пост Пост: #1 от 08-Июл-2013 09:20

[Цитировать]

Тревожный вызов / The Call
Страна: СШA / Apotheosis Media Group, Emergency Films, Troika Pictures
Жанр: Триллер
Год выпуска: 2013
Продолжительность: 01:34:13
Перевод: Профессиональный (дублированный) R5
Cубтитры: английские
Формат субтитров: softsub (SRT)
Оригинальная аудиодорожка: английский-Режиссер: Брэд Андерсон / Brad Anderson
В ролях: Холли Берри, Эбигейл Бреслин, Моррис Честнат, Майкл Эклунд, Майкл Империоли, Рома Маффиа, Эви Томпсон, Стивен Уильямс, Жустина Мачадо
Описание: Фильм расскажет про оператора колл-центра 911, куда поступает звонок от девочки, ставшей жертвой маньяка. Героине предстоит столкнуться со своими кошмарами, чтобы спасти девушку...- -Качество видео: BDRip-AVC [The.Call.2013.1080p.BluRay.AVC.DTS-HD.MA.5.1-PublicHD]
Формат видео: MKV
Видео: H.264, 1200x650 (1.85:1), 23,976 кадр/сек, 2425 Кбит/сек, 0.130 bit/pixel
Аудио#1: 48 kHz, AC3 Dolby Digital, 3/2 (L,C,R,l,r) + LFE ch, 448.00 kbps | RUS
Аудио#2: 48 kHz, AC3 Dolby Digital, 3/2 (L,C,R,l,r) + LFE ch, 448.00 kbps | ENG

MediaInfo

Общее
Уникальный идентификатор : 172446294289901093303289770906705355237 (0x81BBF2BD0C7410A0866E92EAC4E661E5)
Полное имя : Trevozhnyj.Vyzov.2013.D.BDRip.x264.potroks.mkv
Формат : Matroska
Версия формата : Version 4 / Version 2
Размер файла : 2,19 Гбайт
Продолжительность : 1 ч. 34 м.
Общий поток : 3321 Кбит/сек
Название фильма : -=POTROKS=-
Дата кодирования : UTC 2013-06-13 02:50:36
Программа кодирования : mkvmerge v5.9.0 ('On The Loose') built on Dec 15 2012 16:39:58
Библиотека кодирования : libebml v1.3.0 + libmatroska v1.4.0
Видео
Идентификатор : 1
Формат : AVC
Формат/Информация : Advanced Video Codec
Профиль формата : High@L4.1
Параметр CABAC формата : Да
Параметр ReFrames формата : 9 кадров
Идентификатор кодека : V_MPEG4/ISO/AVC
Продолжительность : 1 ч. 34 м.
Битрейт : 2425 Кбит/сек
Ширина : 1200 пикселей
Высота : 650 пикселей
Соотношение сторон : 1,85:1
Режим частоты кадров : Постоянный
Частота кадров : 23,976 кадра/сек
Цветовое пространство : YUV
Субдискретизация насыщенности : 4:2:0
Битовая глубина : 8 бит
Тип развёртки : Прогрессивная
Бит/(Пиксели*Кадры) : 0.130
Размер потока : 1,55 Гбайт (71%)
Заголовок : The Call
Библиотека кодирования : x264 core 125 r2208 d9d2288
Настройки программы : cabac=1 / ref=9 / deblock=1:-2:-2 / analyse=0x3:0x133 / me=umh / subme=11 / psy=1 / psy_rd=1.05:0.00 / mixed_ref=1 / me_range=32 / chroma_me=1 / trellis=2 / 8x8dct=1 / cqm=0 / deadzone=21,11 / fast_pskip=0 / chroma_qp_offset=-2 / threads=9 / lookahead_threads=1 / sliced_threads=0 / nr=0 / decimate=1 / interlaced=0 / bluray_compat=0 / constrained_intra=0 / bframes=10 / b_pyramid=2 / b_adapt=2 / b_bias=0 / direct=3 / weightb=1 / open_gop=0 / weightp=2 / keyint=240 / keyint_min=23 / scenecut=40 / intra_refresh=0 / rc_lookahead=100 / rc=2pass / mbtree=1 / bitrate=2425 / ratetol=1.0 / qcomp=0.70 / qpmin=0 / qpmax=69 / qpstep=4 / cplxblur=20.0 / qblur=0.5 / vbv_maxrate=50000 / vbv_bufsize=62500 / nal_hrd=none / ip_ratio=1.35 / aq=1:0.70
Язык : English
Default : Да
Forced : Нет
Аудио #1
Идентификатор : 2
Формат : AC-3
Формат/Информация : Audio Coding 3
Расширение режима : CM (complete main)
Параметр Endianness формата : Big
Идентификатор кодека : A_AC3
Продолжительность : 1 ч. 34 м.
Вид битрейта : Постоянный
Битрейт : 448 Кбит/сек
Каналы : 6 каналов
Расположение каналов : Front: L C R, Side: L R, LFE
Частота : 48,0 КГц
Битовая глубина : 16 бит
Метод сжатия : С потерями
Размер потока : 302 Мбайт (13%)
Заголовок : Dub | DD 5.1 @ 448 kbps - R5
Язык : Russian
Default : Да
Forced : Да
Аудио #2
Идентификатор : 3
Формат : AC-3
Формат/Информация : Audio Coding 3
Расширение режима : CM (complete main)
Параметр Endianness формата : Big
Идентификатор кодека : A_AC3
Продолжительность : 1 ч. 34 м.
Вид битрейта : Постоянный
Битрейт : 448 Кбит/сек
Каналы : 6 каналов
Расположение каналов : Front: L C R, Side: L R, LFE
Частота : 48,0 КГц
Битовая глубина : 16 бит
Метод сжатия : С потерями
Размер потока : 302 Мбайт (13%)
Заголовок : Original | DD 5.1 @ 448 kbps
Язык : English
Default : Нет
Forced : Нет
Текст
Идентификатор : 4
Формат : UTF-8
Идентификатор кодека : S_TEXT/UTF8
Идентификатор кодека/Информация : UTF-8 Plain Text
Язык : English
Default : Нет
Forced : Нет

log@x.264

x264 [info]: frame I:1023 Avg QP:17.26 size: 67545
x264 [info]: frame P:29272 Avg QP:18.92 size: 25176
x264 [info]: frame B:105257 Avg QP:20.92 size: 8619
x264 [info]: consecutive B-frames: 2.2% 2.9% 6.6% 24.1% 16.0% 31.2% 5.7% 5.3% 1.2% 4.4% 0.4%
x264 [info]: mb I I16..4: 18.3% 60.0% 21.7%
x264 [info]: mb P I16..4: 1.1% 5.4% 1.0% P16..4: 33.6% 38.3% 9.8% 1.5% 0.1% skip: 9.2%
x264 [info]: mb B I16..4: 0.0% 0.4% 0.1% B16..8: 40.3% 17.8% 1.9% direct: 3.0% skip:36.4% L0:43.1% L1:50.6% BI: 6.3%
x264 [info]: 8x8 transform intra:69.7% inter:69.0%
x264 [info]: direct mvs spatial:98.3% temporal:1.7%
x264 [info]: coded y,uvDC,uvAC intra: 79.7% 73.8% 48.3% inter: 16.7% 13.0% 1.7%
x264 [info]: i16 v,h,dc,p: 16% 24% 2% 58%
x264 [info]: i8 v,h,dc,ddl,ddr,vr,hd,vl,hu: 6% 7% 4% 12% 17% 15% 15% 12% 12%
x264 [info]: i4 v,h,dc,ddl,ddr,vr,hd,vl,hu: 11% 9% 5% 11% 16% 13% 14% 10% 12%
x264 [info]: i8c dc,h,v,p: 36% 27% 18% 19%
x264 [info]: Weighted P-Frames: Y:4.7% UV:2.0%
x264 [info]: ref P L0: 51.4% 8.2% 17.4% 6.6% 5.0% 3.9% 3.3% 1.9% 1.9% 0.4% 0.0%
x264 [info]: ref B L0: 76.7% 11.5% 5.5% 2.4% 1.6% 1.3% 0.7% 0.2%
x264 [info]: ref B L1: 92.2% 7.8%
x264 [info]: kb/s:2424.31

Скриншоты



Скачать

Скачать торрент!

Как скачивать? · Что такое торрент? · Рейтинг и ограничения

Сайт не распространяет и не хранит электронные версии произведений, а лишь предоставляет доступ к создаваемому пользователями каталогу ссылок на торрент-файлы, которые содержат только списки хеш-сумм

[Профиль] [ЛС]
Показать сообщения:    
Ответить на тему

Текущее время: Сегодня 22:34

Часовой пояс: GMT + 4



Вы не можете начинать темы
Вы не можете отвечать на сообщения
Вы не можете редактировать свои сообщения
Вы не можете удалять свои сообщения
Вы не можете голосовать в опросах
Вы не можете прикреплять файлы к сообщениям
Вы не можете скачивать файлы