Тайна перевала Дятлова / The Dyatlov Pass Incident (Ренни Харлин / Renny Harlin) [2013, Россия, США, Ужасы, Триллер, BDRip-AVC] MVO

Ответить на тему
 
Автор Сообщение

user ®

Стаж: 7 лет 7 месяцев

Сообщений: 20008

Пост Пост: #1 от 08-Июл-2013 09:20

[Цитировать]

Тайна перевала Дятлова / The Dyatlov Pass Incident Страна: Россия, США
Жанр: Ужасы, Триллер
Год выпуска: 2013
Продолжительность: 01:40:24
Перевод: Профессиональный (многоголосый закадровый)
Cубтитры: нет
Оригинальная аудиодорожка: нет
Режиссер: Ренни Харлин / Renny Harlin
В ролях: Холли Госс, Мэтт Стокоу, Люк Олбрайт, Райан Хоули, Джемма Аткинсон, Николай Бутенин, Ричард Рейд, Анастасия Бурдина, Валерия Федорович, Нелли Нилсен
Описание: Сюжет фильма основан на реальных событиях, произошедших в 1959-м году. В 2012-м году группа американских студентов, получив грант, отправляется на уральские горы, следуя тем же маршрутом, что и группа Дятлова, чтобы попытаться восстановить картину и разгадать причину таинственной, мистической и до сих пор не разгаданной гибели советских лыжников.
Доп. информация:
:
Качество видео: BDRip-AVC |Тайна перевала Дятлова / The Dyatlov Pass Incident (2013) 720p BD-Remux|
Формат видео: MKV
Видео: 1280 x 720 (1.778) at 24.000 fps AVC , 2606 Кбит/сек
Аудио: 48,0 КГц , AC3 ,448 Кбит/сек,6 каналов

MediaInfo

Уникальный идентификатор : 233062603314200581772801525282762451605 (0xAF56398393E3BC319ADF8BF1A03CEA95)
Полное имя : C:\Фильмы\Тайна перевала Дятлова\The Dyatlov Pass Incident.2013.x264.BDRip.720p.MVO.mkv
Формат : Matroska
Версия формата : Version 4 / Version 2
Размер файла : 2,19 Гбайт
Продолжительность : 1 ч. 40 м.
Общий поток : 3116 Кбит/сек
Дата кодирования : UTC 2013-04-19 09:04:13
Программа кодирования : mkvmerge v6.1.0 ('Old Devil') built on Mar 2 2013 14:32:37
Библиотека кодирования : libebml v1.3.0 + libmatroska v1.4.0
Идентификатор : 2
Формат : AVC
Формат/Информация : Advanced Video Codec
Профиль формата : High@L3.1
Параметр CABAC формата : Да
Параметр ReFrames формата : 4 кадра
Идентификатор кодека : V_MPEG4/ISO/AVC
Продолжительность : 1 ч. 40 м.
Битрейт : 2670 Кбит/сек
Ширина : 1280 пикселей
Высота : 720 пикселей
Соотношение сторон : 16:9
Режим частоты кадров : Постоянный
Частота кадров : 24,000 кадра/сек
Цветовое пространство : YUV
Субдискретизация насыщенности : 4:2:0
Битовая глубина : 8 бит
Тип развёртки : Прогрессивная
Бит/(Пиксели*Кадры) : 0.121
Размер потока : 1,83 Гбайт (84%)
Библиотека кодирования : x264 core 130 r2273 b3065e6
Настройки программы : cabac=1 / ref=3 / deblock=1:0:0 / analyse=0x3:0x133 / me=hex / subme=7 / psy=1 / psy_rd=1.00:0.00 / mixed_ref=1 / me_range=16 / chroma_me=1 / trellis=1 / 8x8dct=1 / cqm=0 / deadzone=21,11 / fast_pskip=1 / chroma_qp_offset=-2 / threads=6 / lookahead_threads=1 / sliced_threads=0 / nr=0 / decimate=1 / interlaced=0 / bluray_compat=0 / constrained_intra=0 / bframes=3 / b_pyramid=2 / b_adapt=1 / b_bias=0 / direct=1 / weightb=1 / open_gop=0 / weightp=2 / keyint=240 / keyint_min=24 / scenecut=40 / intra_refresh=0 / rc_lookahead=40 / rc=2pass / mbtree=1 / bitrate=2670 / ratetol=1.0 / qcomp=0.60 / qpmin=0 / qpmax=69 / qpstep=4 / cplxblur=20.0 / qblur=0.5 / ip_ratio=1.40 / aq=1:1.00
Язык : English
Default : Да
Forced : Нет
Идентификатор : 1
Формат : AC-3
Формат/Информация : Audio Coding 3
Расширение режима : CM (complete main)
Параметр Endianness формата : Big
Идентификатор кодека : A_AC3
Продолжительность : 1 ч. 40 м.
Вид битрейта : Постоянный
Битрейт : 448 Кбит/сек
Каналы : 6 каналов
Расположение каналов : Front: L C R, Side: L R, LFE
Частота : 48,0 КГц
Битовая глубина : 16 бит
Метод сжатия : С потерями
Размер потока : 322 Мбайт (14%)
Default : Да
Forced : Нет

Скриншот c названием фильма

Скриншоты

Скачать

Скачать торрент!

Как скачивать? · Что такое торрент? · Рейтинг и ограничения

Сайт не распространяет и не хранит электронные версии произведений, а лишь предоставляет доступ к создаваемому пользователями каталогу ссылок на торрент-файлы, которые содержат только списки хеш-сумм

[Профиль] [ЛС]
Показать сообщения:    
Ответить на тему

Текущее время: Сегодня 12:04

Часовой пояс: GMT + 4



Вы не можете начинать темы
Вы не можете отвечать на сообщения
Вы не можете редактировать свои сообщения
Вы не можете удалять свои сообщения
Вы не можете голосовать в опросах
Вы не можете прикреплять файлы к сообщениям
Вы не можете скачивать файлы