Падение Олимпа / Olympus Has Fallen (Антуан Фукуа / Antoine Fuqua) [2013, США, Боевик, триллер, WEB-DLRip-AVC] Dub + Sub Eng

Ответить на тему
 
Автор Сообщение

user ®

Стаж: 7 лет 7 месяцев

Сообщений: 20008

Пост Пост: #1 от 08-Июл-2013 09:20

[Цитировать]

Падение ОлимпаOlympus Has Fallen«Удар был нанесён в самое сердце. Но он заставит его биться вновь.»
Страна: США
Жанр: Боевик, триллер
Год выпуска: 2013
Продолжительность: 01:59:09
Перевод: Профессиональный (дублированный)
Cубтитры: английские
Оригинальная аудиодорожка: нет
Режиссер: Антуан Фукуа / Antoine Fuqua
В ролях: Джерард Батлер, Аарон Экхарт, Морган Фриман, Эшли Джадд, Мелисса Лео, Финли Якобсен, Дилан МакДермотт, Рик Юн, Анджела Бассетт, Рада Митчелл
Описание: Когда на Белый Дом нападают террористы, а президента берут в заложники, дискредитированный бывший охранник главы государства Майк Бэннинг оказывается внутри захваченного здания. И теперь он единственный, кто сможет спасти президента…
Доп. информация:
:
Качество видео: WEB-DLRip-AVC |Падение Олимпа / Olympus Has Fallen(2013) WEB-DL 720|
Формат видео: MKV
Видео: 1036x436 (2.40:1), 24,000 fps,AVC 2182 Кbps, 0.201 bit/pixel
Аудио: 48 kHz, AC3 Dolby Digital, 3/2 (L,C,R,l,r) + LFE ch, 384.00 kbps
Формат субтитров: softsub (SRT)
Доп. информация о субтитрах: отключаемые

MediaInfo

Уникальный идентификатор : 232046143425168357570813412334182018414 (0xAE92762C16367A358F52BC5C0C9F2D6E)
Полное имя : C:\Фильмы\Падение олимпа\Padenije.Olimpa.2013.WEB-DLRip-AVC.mkv.
Формат : Matroska
Версия формата : Version 4 / Version 2
Размер файла : 2,13 Гбайт
Продолжительность : 1 ч. 59 м.
Общий поток : 2565 Кбит/сек
Название фильма : Падение Олимпа
Дата кодирования : UTC 2013-06-29 09:58:58
Программа кодирования : mkvmerge v5.9.0 ('On The Loose') built on Dec 15 2012 16:39:58
Библиотека кодирования : libebml v1.3.0 + libmatroska v1.4.0
Идентификатор : 1
Формат : AVC
Формат/Информация : Advanced Video Codec
Профиль формата : High@L4.1
Параметр CABAC формата : Да
Параметр ReFrames формата : 10 кадров
Идентификатор кодека : V_MPEG4/ISO/AVC
Продолжительность : 1 ч. 59 м.
Битрейт : 2182 Кбит/сек
Ширина : 1036 пикселей
Высота : 436 пикселей
Соотношение сторон : 2,40:1
Режим частоты кадров : Постоянный
Частота кадров : 24,000 кадра/сек
Цветовое пространство : YUV
Субдискретизация насыщенности : 4:2:0
Битовая глубина : 8 бит
Тип развёртки : Прогрессивная
Бит/(Пиксели*Кадры) : 0.201
Размер потока : 1,77 Гбайт (83%)
Заголовок : Olympus Has Fallen
Библиотека кодирования : x264 core 125 r2208 d9d2288
Настройки программы : cabac=1 / ref=10 / deblock=1:-2:-2 / analyse=0x3:0x133 / me=umh / subme=11 / psy=1 / psy_rd=1.04:0.03 / mixed_ref=1 / me_range=48 / chroma_me=1 / trellis=2 / 8x8dct=1 / cqm=0 / deadzone=21,11 / fast_pskip=0 / chroma_qp_offset=-3 / threads=9 / lookahead_threads=1 / sliced_threads=0 / nr=0 / decimate=1 / interlaced=0 / bluray_compat=0 / constrained_intra=0 / bframes=11 / b_pyramid=2 / b_adapt=2 / b_bias=0 / direct=3 / weightb=1 / open_gop=0 / weightp=2 / keyint=240 / keyint_min=23 / scenecut=40 / intra_refresh=0 / rc_lookahead=150 / rc=2pass / mbtree=1 / bitrate=2182 / ratetol=1.0 / qcomp=0.70 / qpmin=0 / qpmax=69 / qpstep=4 / cplxblur=20.0 / qblur=0.5 / vbv_maxrate=20000 / vbv_bufsize=20000 / nal_hrd=none / ip_ratio=1.35 / aq=1:0.80
Язык : English
Default : Да
Forced : Нет
Идентификатор : 2
Формат : AC-3
Формат/Информация : Audio Coding 3
Расширение режима : CM (complete main)
Параметр Endianness формата : Big
Идентификатор кодека : A_AC3
Продолжительность : 1 ч. 59 м.
Вид битрейта : Постоянный
Битрейт : 384 Кбит/сек
Каналы : 6 каналов
Расположение каналов : Front: L C R, Side: L R, LFE
Частота : 48,0 КГц
Битовая глубина : 16 бит
Метод сжатия : С потерями
Размер потока : 327 Мбайт (15%)
Заголовок : дубляж
Язык : Russian
Default : Да
Forced : Да
Идентификатор : 3
Формат : UTF-8
Идентификатор кодека : S_TEXT/UTF8
Идентификатор кодека/Информация : UTF-8 Plain Text
Язык : English
Default : Нет
Forced : Нет

Скриншот c названием фильма

Скриншоты

Скачать

Скачать торрент!

Как скачивать? · Что такое торрент? · Рейтинг и ограничения

Сайт не распространяет и не хранит электронные версии произведений, а лишь предоставляет доступ к создаваемому пользователями каталогу ссылок на торрент-файлы, которые содержат только списки хеш-сумм

[Профиль] [ЛС]
Показать сообщения:    
Ответить на тему

Текущее время: Сегодня 20:03

Часовой пояс: GMT + 4



Вы не можете начинать темы
Вы не можете отвечать на сообщения
Вы не можете редактировать свои сообщения
Вы не можете удалять свои сообщения
Вы не можете голосовать в опросах
Вы не можете прикреплять файлы к сообщениям
Вы не можете скачивать файлы