Муви 43 / Movie 43 (Стивен Брилл / Steven Brill, Питер Фаррелли / Peter Farrelly, Боб Оденкёрк / Bob Odenkirk) [2013 г, комедия, фарс, абсурд, BDRip-AVC] AVO (Гоблин) + Dub + Original + Sub (Rus, Eng)

Ответить на тему
 
Автор Сообщение

user ®

Стаж: 7 лет 7 месяцев

Сообщений: 20008

Пост Пост: #1 от 08-Июл-2013 09:20

[Цитировать]

Муви 43 / Movie 43Год выпуска: 2013
Страна: США
Жанр: комедия, фарс, абсурд
Продолжительность: 01:38:00
Перевод:
- авторский (одноголосый закадровый, Дмитрий Пучков aka Гоблин)
- профессиональный (полное дублирование)
Cубтитры: русские, английские
Режиссеры: Стивен Брилл / Steven Brill, Питер Фаррелли / Peter Farrelly, Элизабет Бэнкс / Bob Odenkirk
В ролях: Холли Берри, Джерард Батлер, Анна Фэрис, Хью Джекман, Джонни Ноксвил, Кристофер Минц-Плассе, Шонн Уильям Скотт, Эмма Стоун, Кейт Уинслет, Наоми Уоттс, Ричард Гир, Ума Турман, Хлоя Грейс Морец, Терренс Ховард
Описание: 25 cуперзвезд первой величины — в комедийном проекте, который состоит из двух десятков мини-новелл с нескончаемым потоком шуток, гэгов, острот и пародий, о страстях и страстишках человеческих.
Рейтинг MPAA: -Доп. информация:
IMDb: 4.4/10
Kinopoisk: 5.206/10
Sample

Интересные факты о фильме

  • Работа над фильмом начиналась под руководством Overture Films. Позже фильмом занялась студия Relativity Media, а через несколько месяцев после этого Relativity Media купила Overture Films.
  • Джордж Клуни отказался от эпизодической роли в образе самого себя в сцене, где его бы показали нелепо подкатывающим к женщинам.
  • Роль лепрекона могла достаться Колину Фарреллу.
  • Трей Паркер и Мэтт Стоун могли поучаствовать в режиссуре фильма, но отказались.
  • У фильма не было предварительного показа для кинокритиков.
  • Антон Ельчин первоначально был в эпизоде, который режиссировал Боб Оденкирк. Он исполнял роль некрофила. Но после крайне негативных отзывов на скрининг-тесте Ельчин покинул проект.
  • В титрах указано, что режиссером двух сегментов был Боб Оденкирк, при этом этих сцен нет в американском релизе.
Качество: [url=http://***/forum/viewtopic.php?t=4423141]BD[/url]Rip-AVC
Формат: MKV
Видео кодек: H.264
Аудио кодек: AC3
Видео: 1152x624 (1.85:1), 2915 kbps, 23.976 fps
Аудио №1: Russian, AC3, 6ch, 48 kHz, 448 kbps (Одноголосый, Гоблин)
Аудио №2: Russian, AC3, 6ch, 48 kHz, 448 kbps (Дубляж)
Аудио №3: English, AC3, 6ch, 48 kHz, 448 kbps (Оригинал)
Субтитры №1: Russian, SRT
Субтитры №2: English, SRT-

Сравнение с исходником

Rip

Source

MediaInfo

Format : Matroska
Format version : Version 4 / Version 2
File size : 2.92 GiB
Duration : 1h 38mn
Overall bit rate : 4 261 Kbps
Movie name : Movie 43 (2013) BDRip
Encoded date : UTC 2013-05-30 17:03:20
Writing application : mkvmerge v6.2.0 ('Promised Land') built on Apr 28 2013 12:22:01
Writing library : libebml v1.3.0 + libmatroska v1.4.0
Attachment : Yes
Video
ID : 1
Format : AVC
Format/Info : Advanced Video Codec
Format profile : High@L4.1
Format settings, CABAC : Yes
Format settings, ReFrames : 11 frames
Codec ID : V_MPEG4/ISO/AVC
Duration : 1h 38mn
Bit rate : 2 832 Kbps
Width : 1 152 pixels
Height : 624 pixels
Display aspect ratio : 1.85:1
Frame rate mode : Constant
Frame rate : 23.976 fps
Color space : YUV
Chroma subsampling : 4:2:0
Bit depth : 8 bits
Scan type : Progressive
Bits/(Pixel*Frame) : 0.164
Stream size : 1.94 GiB (66%)
Writing library : x264 core 133 r2334kMod a3ac64b
Encoding settings : cabac=1 / ref=11 / deblock=1:-2:-2 / analyse=0x3:0x133 / me=umh / subme=11 / psy=1 / fade_compensate=0.00 / psy_rd=1.02:0.05 / mixed_ref=1 / me_range=32 / chroma_me=1 / trellis=2 / 8x8dct=1 / cqm=0 / deadzone=21,11 / fast_pskip=0 / chroma_qp_offset=-3 / threads=6 / lookahead_threads=1 / sliced_threads=0 / nr=0 / decimate=1 / interlaced=0 / bluray_compat=0 / constrained_intra=0 / bframes=16 / b_pyramid=2 / b_adapt=2 / b_bias=0 / direct=1 / weightb=1 / open_gop=0 / weightp=2 / keyint=250 / keyint_min=23 / scenecut=40 / intra_refresh=0 / rc_lookahead=40 / rc=crf / mbtree=0 / crf=19.1000 / qcomp=0.65 / qpmin=0 / qpmax=69 / qpstep=4 / vbv_maxrate=50000 / vbv_bufsize=62500 / crf_max=0.0 / nal_hrd=none / ip_ratio=1.40 / pb_ratio=1.30 / aq=2:0.90
Language : English
Default : Yes
Forced : No
Matrix coefficients : BT.709
Audio #1
ID : 2
Format : AC-3
Format/Info : Audio Coding 3
Mode extension : CM (complete main)
Format settings, Endianness : Big
Codec ID : A_AC3
Duration : 1h 38mn
Bit rate mode : Constant
Bit rate : 448 Kbps
Channel(s) : 6 channels
Channel positions : Front: L C R, Side: L R, LFE
Sampling rate : 48.0 KHz
Bit depth : 16 bits
Compression mode : Lossy
Stream size : 314 MiB (11%)
Title : AVO (Goblin)
Language : Russian
Default : Yes
Forced : No
Audio #2
ID : 3
Format : AC-3
Format/Info : Audio Coding 3
Mode extension : CM (complete main)
Format settings, Endianness : Big
Codec ID : A_AC3
Duration : 1h 38mn
Bit rate mode : Constant
Bit rate : 448 Kbps
Channel(s) : 6 channels
Channel positions : Front: L C R, Side: L R, LFE
Sampling rate : 48.0 KHz
Bit depth : 16 bits
Compression mode : Lossy
Stream size : 314 MiB (11%)
Title : Dub
Language : Russian
Default : No
Forced : No
Audio #3
ID : 4
Format : AC-3
Format/Info : Audio Coding 3
Mode extension : CM (complete main)
Format settings, Endianness : Big
Codec ID : A_AC3
Duration : 1h 38mn
Bit rate mode : Constant
Bit rate : 448 Kbps
Channel(s) : 6 channels
Channel positions : Front: L C R, Side: L R, LFE
Sampling rate : 48.0 KHz
Bit depth : 16 bits
Compression mode : Lossy
Stream size : 314 MiB (11%)
Title : Original
Language : English
Default : No
Forced : No
Text #1
ID : 5
Format : UTF-8
Codec ID : S_TEXT/UTF8
Codec ID/Info : UTF-8 Plain Text
Language : Russian
Default : No
Forced : No
Text #2
ID : 6
Format : UTF-8
Codec ID : S_TEXT/UTF8
Codec ID/Info : UTF-8 Plain Text
Language : English
Default : No
Forced : No
Menu
00:00:00.000 : en:Chapter 1
00:06:00.944 : en:Chapter 2
00:13:50.747 : en:Chapter 3
00:19:50.689 : en:Chapter 4
00:28:46.516 : en:Chapter 5
00:33:18.580 : en:Chapter 6
00:43:33.194 : en:Chapter 7
00:49:42.897 : en:Chapter 8
00:56:07.948 : en:Chapter 9
01:02:47.514 : en:Chapter 10
01:09:59.612 : en:Chapter 11
01:15:43.289 : en:Chapter 12
01:20:44.965 : en:Chapter 13
01:23:21.705 : en:Chapter 14
01:29:51.720 : en:Chapter 15

x264 log

x264 [info]: frame I:1422 Avg QP:17.94 size: 78663
x264 [info]: frame P:27130 Avg QP:19.28 size: 31601
x264 [info]: frame B:112424 Avg QP:21.47 size: 10437
x264 [info]: consecutive B-frames: 1.8% 1.1% 4.0% 13.6% 17.2% 50.6% 5.5% 0.9% 0.8% 0.4% 0.3% 1.0% 0.5% 0.7% 0.2% 0.2% 1.3%
x264 [info]: mb I I16..4: 9.5% 71.7% 18.7%
x264 [info]: mb P I16..4: 0.9% 9.8% 1.2% P16..4: 29.8% 32.5% 11.6% 1.4% 0.1% skip:12.5%
x264 [info]: mb B I16..4: 0.1% 1.1% 0.1% B16..8: 32.9% 16.6% 3.1% direct: 4.0% skip:42.1% L0:43.5% L1:46.4% BI:10.1%
x264 [info]: 8x8 transform intra:80.0% inter:62.3%
x264 [info]: coded y,uvDC,uvAC intra: 85.1% 74.7% 53.4% inter: 21.1% 16.3% 2.5%
x264 [info]: i16 v,h,dc,p: 28% 18% 11% 43%
x264 [info]: i8 v,h,dc,ddl,ddr,vr,hd,vl,hu: 9% 7% 8% 10% 14% 14% 13% 12% 12%
x264 [info]: i4 v,h,dc,ddl,ddr,vr,hd,vl,hu: 13% 11% 6% 8% 14% 14% 12% 10% 11%
x264 [info]: i8c dc,h,v,p: 35% 30% 19% 16%
x264 [info]: Weighted P-Frames: Y:3.4% UV:1.2%
x264 [info]: ref P L0: 45.0% 9.8% 18.3% 6.8% 5.7% 4.0% 3.6% 1.9% 1.8% 1.4% 1.5% 0.1% 0.0%
x264 [info]: ref B L0: 72.9% 11.6% 5.8% 3.0% 2.1% 1.7% 1.3% 0.8% 0.5% 0.2%
x264 [info]: ref B L1: 92.9% 7.1%
x264 [info]: kb/s:2915.14
x264 [info]: encoded 140976 frames, 5.32 fps, 2915.15 kb/s, duration 7:21:39.14
-
-Релиз от группы -
Скачать

Скачать торрент!

Как скачивать? · Что такое торрент? · Рейтинг и ограничения

Сайт не распространяет и не хранит электронные версии произведений, а лишь предоставляет доступ к создаваемому пользователями каталогу ссылок на торрент-файлы, которые содержат только списки хеш-сумм

[Профиль] [ЛС]
Показать сообщения:    
Ответить на тему

Текущее время: Сегодня 12:27

Часовой пояс: GMT + 4



Вы не можете начинать темы
Вы не можете отвечать на сообщения
Вы не можете редактировать свои сообщения
Вы не можете удалять свои сообщения
Вы не можете голосовать в опросах
Вы не можете прикреплять файлы к сообщениям
Вы не можете скачивать файлы