Мёбиус / Mobius (Эрик Рошан / Eric Rochant) [2013, Франция, Бельгия, Люксембург, триллер, драма, HDRip-AVC] Dub |Лицензия|

Ответить на тему
 
Автор Сообщение

user ®

Стаж: 7 лет 7 месяцев

Сообщений: 20008

Пост Пост: #1 от 08-Июл-2013 09:20

[Цитировать]

Мёбиус / Mobius«Можно играть в политику, играть с деньгами, с доверием, но только не с любовью» -Страна: Франция, Бельгия, Люксембург
Жанр: триллер, драма
Год выпуска: 2013
Продолжительность: 01:48:13
Перевод: Профессиональный (дублированный) |Лицензия|
Cубтитры: нет-Режиссер: Эрик Рошан / Eric Rochant-В ролях: Жан Дюжарден, Сесиль Де Франс, Тим Рот, Эмили Декьенн, Владимир Меньшов, Алексей Горбунов, Дмитрий Назаров, Максим Виторган, Бранка Катич, Эрик Вьеллар-Описание: Жестокий и хладнокровный офицер с мрачным характером и проницательным умом, тайный агент ФСБ по кличке Моисей, ведет дело крупного российского олигарха, которого подозревают в фантастических финансовых махинациях. Кажется, он уже наступил на хвост змеи, но тут в его жизнь врывается страсть. Он, никогда в жизни не знавший нежных чувств, влюбляется в Алису, работающую трейдером в банковской структуре преступного олигарха. Что будет утром, когда окончится горячая любовная ночь?- -Релиз от: -Автор рипа: Yarmak23-Качество видео: HDRip-AVC |исходник: BDRip 1080p|
Формат видео: MKV
Видео: 1024x426 (2.40:1), 24.000 fps, x264 ~1530 kbps avg, 0.146 bit/pixel
Аудио: 48 kHz, AC3 Dolby Digital, 3/2 (L,C,R,l,r) + LFE ch, 384.00 kbps Constant |Дубляж|
Скачать: Сэмпл-

MI

General
Complete name : Mobius.2013.D.HDRip-AVC.1.45GB_by_Yarmak23.mkv
Format : Matroska
Format version : Version 2
File size : 1.45 GiB
Duration : 1h 48mn
Overall bit rate : 1 916 Kbps
Encoded date : UTC 2013-06-28 23:38:05
Writing application : mkvmerge v5.8.0 ('No Sleep / Pillow') built on Sep 2 2012 15:37:04
Writing library : libebml v1.2.3 + libmatroska v1.3.0
Video
ID : 1
Format : AVC
Format/Info : Advanced Video Codec
Format profile : High@L4.1
Format settings, CABAC : Yes
Format settings, ReFrames : 11 frames
Codec ID : V_MPEG4/ISO/AVC
Duration : 1h 48mn
Bit rate : 1 530 Kbps
Width : 1 024 pixels
Height : 426 pixels
Display aspect ratio : 2.40:1
Frame rate mode : Constant
Frame rate : 24.000 fps
Color space : YUV
Chroma subsampling : 4:2:0
Bit depth : 8 bits
Scan type : Progressive
Bits/(Pixel*Frame) : 0.146
Stream size : 1.13 GiB (78%)
Writing library : x264 core 125 r2208 d9d2288
Encoding settings : cabac=1 / ref=11 / deblock=1:-2:-1 / analyse=0x3:0x113 / me=umh / subme=9 / psy=1 / psy_rd=1.00:0.10 / mixed_ref=1 / me_range=32 / chroma_me=1 / trellis=1 / 8x8dct=1 / cqm=0 / deadzone=21,11 / fast_pskip=0 / chroma_qp_offset=-3 / threads=3 / lookahead_threads=1 / sliced_threads=0 / nr=0 / decimate=1 / interlaced=0 / bluray_compat=0 / constrained_intra=0 / bframes=10 / b_pyramid=2 / b_adapt=1 / b_bias=0 / direct=3 / weightb=1 / open_gop=0 / weightp=2 / keyint=240 / keyint_min=23 / scenecut=40 / intra_refresh=0 / rc_lookahead=60 / rc=2pass / mbtree=1 / bitrate=1530 / ratetol=1.0 / qcomp=0.60 / qpmin=0 / qpmax=69 / qpstep=4 / cplxblur=20.0 / qblur=0.5 / ip_ratio=1.40 / aq=1:1.00
Default : Yes
Forced : No
Audio
ID : 2
Format : AC-3
Format/Info : Audio Coding 3
Mode extension : CM (complete main)
Format settings, Endianness : Big
Codec ID : A_AC3
Duration : 1h 48mn
Bit rate mode : Constant
Bit rate : 384 Kbps
Channel(s) : 6 channels
Channel positions : Front: L C R, Side: L R, LFE
Sampling rate : 48.0 KHz
Bit depth : 16 bits
Compression mode : Lossy
Stream size : 297 MiB (20%)
Default : Yes
Forced : No

log@x.264

x264 [info]: frame I:1612 Avg QP:18.29 size: 56160
x264 [info]: frame P:71794 Avg QP:21.26 size: 12237
x264 [info]: frame B:82426 Avg QP:23.28 size: 3309
x264 [info]: consecutive B-frames: 15.3% 37.6% 20.1% 20.4% 5.0% 0.8% 0.3% 0.1% 0.0% 0.0% 0.4%
x264 [info]: mb I I16..4: 14.6% 67.3% 18.1%
x264 [info]: mb P I16..4: 0.6% 2.1% 0.3% P16..4: 48.1% 21.5% 16.4% 0.0% 0.0% skip:11.0%
x264 [info]: mb B I16..4: 0.0% 0.1% 0.0% B16..8: 47.1% 5.7% 1.4% direct: 1.6% skip:44.1% L0:44.9% L1:51.6% BI: 3.6%
x264 [info]: 8x8 transform intra:68.6% inter:71.4%
x264 [info]: direct mvs spatial:90.0% temporal:10.0%
x264 [info]: coded y,uvDC,uvAC intra: 83.0% 70.3% 37.0% inter: 22.6% 22.6% 1.0%
x264 [info]: i16 v,h,dc,p: 43% 17% 10% 30%
x264 [info]: i8 v,h,dc,ddl,ddr,vr,hd,vl,hu: 8% 6% 4% 12% 16% 16% 15% 13% 12%
x264 [info]: i4 v,h,dc,ddl,ddr,vr,hd,vl,hu: 10% 7% 3% 10% 16% 15% 14% 12% 13%
x264 [info]: i8c dc,h,v,p: 42% 23% 20% 14%
x264 [info]: Weighted P-Frames: Y:0.9% UV:0.2%
x264 [info]: ref P L0: 48.7% 10.2% 16.7% 6.1% 5.1% 3.7% 3.4% 1.5% 1.5% 1.2% 1.3% 0.5% 0.0%
x264 [info]: ref B L0: 66.6% 14.4% 7.0% 3.5% 2.5% 2.2% 1.7% 1.0% 0.8% 0.3%
x264 [info]: ref B L1: 92.6% 7.4%
x264 [info]: kb/s:1529.98

Скриншот c названием фильма

Скриншоты


Скачать

Скачать торрент!

Как скачивать? · Что такое торрент? · Рейтинг и ограничения

Сайт не распространяет и не хранит электронные версии произведений, а лишь предоставляет доступ к создаваемому пользователями каталогу ссылок на торрент-файлы, которые содержат только списки хеш-сумм

[Профиль] [ЛС]
Показать сообщения:    
Ответить на тему

Текущее время: Сегодня 01:46

Часовой пояс: GMT + 4



Вы не можете начинать темы
Вы не можете отвечать на сообщения
Вы не можете редактировать свои сообщения
Вы не можете удалять свои сообщения
Вы не можете голосовать в опросах
Вы не можете прикреплять файлы к сообщениям
Вы не можете скачивать файлы