Падение Олимпа / Olympus Has Fallen (Антуан Фукуа / Antoine Fuqua) [2013, США, Боевик, триллер, BDRip] Dub

Ответить на тему
 
Автор Сообщение

user ®

Стаж: 7 лет 7 месяцев

Сообщений: 20008

Пост Пост: #1 от 08-Июл-2013 09:20

[Цитировать]

Падение Олимпа / Olympus Has Fallen
«Удар был нанесён в самое сердце. Но он заставит его биться вновь.»- Год выпуска: 2013
Выпущено: США / Millennium Films, Nu-Image Films, West Coast Film Partners
Жанр: боевик, триллер
Продолжительность: 01:59:09
Перевод: Профессиональный (полное дублирование)
Субтитры: нет-Режиссер:
Антуан Фукуа / Antoine Fuqua-В ролях:
Джерард Батлер (Mike Banning), Аарон Экхарт (President Benjamin Asher), Морган Фриман (Speaker Trumbull), Рик Юн (Kang), Финли Якобсен (Connor), Анджела Бассетт (Secret Service Director Lynn Jacobs), Рада Митчелл (Leah), Роберт Форстер (General Edward Clegg), Дилан МакДермотт (Forbes), Эшли Джадд (Margaret Asher)-Описание:
Когда на Белый Дом нападают террористы, а президента берут в заложники, дискредитированный бывший охранник главы государства Майк Бэннинг оказывается внутри захваченного здания. И теперь он единственный, кто сможет спасти президента…-IMDB | КиноПоиск | Сэмпл |-Качество: BDRip [Olympus.Has.Fallen.2013.1080p.BluRay.AVC.DTS-HD.MA5.1-nLiBRA]
Формат: AVI
Видео: 720x304 (2.37:1), 24.000 fps, XviD build 73 ~1359 kbps avg, 0.26 bit/pixel
Аудио: 48 kHz, AC3 Dolby Digital, 3/2 (L,C,R,l,r) + LFE ch, ~384.00 kbps avg-

Скриншоты

MediaInfo

General
Complete name                            : D:\Padenie_Olimpa_2013_BDRip_by_Dalemake.avi
Format                                   : AVI
Format/Info                              : Audio Video Interleave
File size                                : 1.46 GiB
Duration                                 : 1h 59mn
Overall bit rate                         : 1 753 Kbps
Writing application                      : VirtualDubMod 1.5.10.3 | www.virtualdub-fr.org || (build 2550/release)
Writing library                          : VirtualDubMod build 2550/release
Video
ID                                       : 0
Format                                   : MPEG-4 Visual
Format profile                           : Advanced Simple@L5
Format settings, BVOP                    : 1
Format settings, QPel                    : No
Format settings, GMC                     : No warppoints
Format settings, Matrix                  : Custom
Codec ID                                 : XVID
Codec ID/Hint                            : XviD
Duration                                 : 1h 59mn
Bit rate                                 : 1 359 Kbps
Width                                    : 720 pixels
Height                                   : 304 pixels
Display aspect ratio                     : 2.35:1
Frame rate                               : 24.000 fps
Color space                              : YUV
Chroma subsampling                       : 4:2:0
Bit depth                                : 8 bits
Scan type                                : Progressive
Compression mode                         : Lossy
Bits/(Pixel*Frame)                       : 0.259
Stream size                              : 1.13 GiB (78%)
Writing library                          : XviD 73
Audio
ID                                       : 1
Format                                   : AC-3
Format/Info                              : Audio Coding 3
Mode extension                           : CM (complete main)
Format settings, Endianness              : Big
Codec ID                                 : 2000
Duration                                 : 1h 59mn
Bit rate mode                            : Constant
Bit rate                                 : 384 Kbps
Channel(s)                               : 6 channels
Channel positions                        : Front: L C R, Side: L R, LFE
Sampling rate                            : 48.0 KHz
Bit depth                                : 16 bits
Compression mode                         : Lossy
Stream size                              : 327 MiB (22%)
Alignment                                : Split accross interleaves
Interleave, duration                     : 42 ms (1.00 video frame)
Interleave, preload duration             : 500 ms
Скачать

Скачать торрент!

Как скачивать? · Что такое торрент? · Рейтинг и ограничения

Сайт не распространяет и не хранит электронные версии произведений, а лишь предоставляет доступ к создаваемому пользователями каталогу ссылок на торрент-файлы, которые содержат только списки хеш-сумм

[Профиль] [ЛС]
Показать сообщения:    
Ответить на тему

Текущее время: Сегодня 23:54

Часовой пояс: GMT + 4



Вы не можете начинать темы
Вы не можете отвечать на сообщения
Вы не можете редактировать свои сообщения
Вы не можете удалять свои сообщения
Вы не можете голосовать в опросах
Вы не можете прикреплять файлы к сообщениям
Вы не можете скачивать файлы