Сибирское воспитание / Educazione siberiana (Габриэле Сальваторес / Gabriele Salvatores) [2013, Италия, триллер, драма, криминал, биография, HDRip] VO

Ответить на тему
 
Автор Сообщение

user ®

Стаж: 7 лет 7 месяцев

Сообщений: 20008

Пост Пост: #1 от 08-Июл-2013 09:20

[Цитировать]

Сибирское воспитание / Educazione siberiana- Страна: Италия
Жанр: триллер, драма, криминал, биография
Год выпуска: 2013
Продолжительность: 01:43:33-Перевод: Одноголосый закадровый
Cубтитры: нет
Оригинальная аудиодорожка: нет-Режиссер: Габриэле Сальваторес / Gabriele Salvatores
В ролях: Арнас Федаравичус, Элинор Томлинсон, Вилиус Тумалавичус, Йонас Труканас, Виталий Поршнев, Петер Стормаре, Джон Малкович, Миндаугас Папинигис, Андрюс Паулавичюс, Донатас Шимукаускас-Описание: Действие фильма развернется в одном из глухих сибирских поселков. Юный главный герой по имени Колыма оказывается впутан в жестокий криминальный мир своего родного городка. Мы увидим становление этого мальчика, которому приходится принять правила их общины и пуститься во все тяжкие. Жить «по понятиям» его научит матерый авторитет — дед Кузя.- -Качество видео: HDRip
Формат видео: AVI-Видео: 720x384 (1.88:1), 23.976 fps, XviD build 50 ~1496 kbps avg, 0.23 bit/pixel
Аудио: Russian ( 48 kHz, AC3 Dolby Digital, 3/2 (L,C,R,l,r) + LFE ch, ~384 kbps)

MediaInfo

Общее
Полное имя : F:Siberian.Education.2013.L1.HDRip.avi
Формат : AVI
Формат/Информация : Audio Video Interleave
Размер файла : 1,37 Гбайт
Продолжительность : 1 ч. 43 м.
Общий поток : 1890 Кбит/сек
Программа кодирования : VirtualDubMod 1.5.10.2 (build 2540/release)
Библиотека кодирования : VirtualDubMod build 2540/release
Видео
Идентификатор : 0
Формат : MPEG-4 Visual
Профиль формата : Advanced Simple@L5
Параметр BVOP формата : 2
Параметр QPel формата : Нет
Параметр GMC формата : Без точки перехода
Параметр матрицы формата : Default (MPEG)
Идентификатор кодека : XVID
Идентификатор кодека/Подсказка : XviD
Продолжительность : 1 ч. 43 м.
Битрейт : 1497 Кбит/сек
Ширина : 720 пикс.
Высота : 384 пикс.
Соотношение сторон : 1,875
Частота кадров : 23,976 кадр/сек
Цветовое пространство : YUV
Подвыборка цветности : 4:2:0
Битовая глубина : 8 бит
Тип развёртки : Прогрессивная
Метод сжатия : С потерями
Бит/(Пиксели*Кадры) : 0.226
Размер потока : 1,08 Гбайт (79%)
Библиотека кодирования : XviD 1.2.1 (UTC 2008-12-04)
Аудио
Идентификатор : 1
Формат : AC-3
Формат/Информация : Audio Coding 3
Расширение режима : CM (complete main)
Идентификатор кодека : 2000
Продолжительность : 1 ч. 43 м.
Вид битрейта : Постоянный
Битрейт : 384 Кбит/сек
Каналы : 6 каналов
Расположение каналов : Front: L C R, Side: L R, LFE
Частота : 48,0 КГц
Битовая глубина : 16 бит
Метод сжатия : С потерями
Размер потока : 284 Мбайт (20%)
Выравнивание : Разделение по промежуткам
Продолжительность промежутка : 42 мс. (1,00 видеокадр)
Время предзагрузки промежутка : 500 ms

Скриншот c названием фильма

Скриншоты

Скачать

Скачать торрент!

Как скачивать? · Что такое торрент? · Рейтинг и ограничения

Сайт не распространяет и не хранит электронные версии произведений, а лишь предоставляет доступ к создаваемому пользователями каталогу ссылок на торрент-файлы, которые содержат только списки хеш-сумм

[Профиль] [ЛС]
Показать сообщения:    
Ответить на тему

Текущее время: Сегодня 15:51

Часовой пояс: GMT + 4



Вы не можете начинать темы
Вы не можете отвечать на сообщения
Вы не можете редактировать свои сообщения
Вы не можете удалять свои сообщения
Вы не можете голосовать в опросах
Вы не можете прикреплять файлы к сообщениям
Вы не можете скачивать файлы