Побочный эффект / Side Effects (Стивен Содерберг / Steven Soderbergh) [2013, США, триллер, драма, BDRip] Dub

Ответить на тему
 
Автор Сообщение

user ®

Стаж: 7 лет 7 месяцев

Сообщений: 20008

Пост Пост: #1 от 08-Июл-2013 09:20

[Цитировать]

Побочный эффект Side Effects Год выпуска: 2013
Страна: США
Жанр: триллер, драма
Продолжительность: 01:46:22
Перевод: Профессиональный полное дублирование R5 / лицензия
Cубтитры: нет-Режиссёр: Стивен Содерберг / Steven Soderbergh-В ролях:
Джуд Лоу, Ченнинг Татум, Руни Мара, Винесса Шоу, Кэтрин Зета-Джонс, Майкл Натансон, Питер Фридман, Андреа Богарт, Лайла Робинс, Дэвид Костабайл, Мэми Гаммер, Митчелл Мичалишин, Кармен Пелаес, Марин Айрлэнд, Полли Дрэйпер, Аральдо Альварес, Джеймс Мартинез, Владимир Версейл, Жаклин Антарамиан, Мишель Вергара Мур, Кэти Лоус, Виктор Круз, Элизабет Родригез, Элизабет Рич, Родерик Родригес, Скотт Шеперд-Описание:
Жизнь главной героини Эмили Хоукинс пошла под откос, когда её мужа посадили в тюрьму. Вначале она пыталась спастись от депрессии своими силами, горстями глотая успокоительное. После того, как стало понятно, что это не поможет, Эмили не оставалось другого выхода кроме отправления в психиатрическую лечебницу к добрым и заботливым людям в белых халатах. Теперь главная героиня борется со своими внутренними демонами уже не одна — справиться с угнетённым состоянием ей помогают два лучших доктора клиники, а также экспериментальные препараты, обладающие довольно странными побочными эффектами. Не получится ли так, что все внутренние страхи Эмили вместо того, чтобы исчезнуть, вырвутся наружу?-
  • На главную роль рассматривались кандидатуры Эмили Блант, Оливии Уайлд, Имоджен Путс, Элис Ив, Аманды Сайфред и Мишель Уильямс. Кастинг прошла Блэйк Лайвли, однако позже она была заменена на Руни Мару.
  • Джастин Тимберлэйк рассматривался на роль, которую получил Ченнинг Татум.
  • Стивен Содерберг рассматривал кандидатуру Линдси Лохан на роль Эмили и трижды устраивал ей прослушивания. Однако продюсеры посчитали, что ее текущие проблемы с законом могут нарушить производственный процесс.
  • Сценарист Скотт Бёрнс, работавший с Содербергом над «Информатором» и «Заражением», вынашивал идею создания фильма больше 10 лет.
  • В начале фильма оператор и камера отражаются в окне автомобиля.
-Награды:
Берлинский кинофестиваль, 2013 год
Номинации: Золотой Медведь--IMDB: 7.3/10 (22 830 votes)
Кинопоиск: 7.333 (14 650)-Сэмпл--Качество видео: BDRip исходник BD-Remux 1080p
Формат: AVI
Видео кодек: XviD
Аудио кодек: AC3
Видео: 704x384 (1.83:1), 23.976 fps, XviD, ~1504 kbps avg, 0.23 bit/pixel
Аудио: 48 kHz, AC3 Dolby Digital, 3/2 (L,C,R,l,r) + LFE ch, ~448 kbps

MI

General
Complete name : D:\Pobochnyu.Effekt.2013.BDRip.avi
Format : AVI
Format/Info : Audio Video Interleave
File size : 1.46 GiB
Duration : 1h 46mn
Overall bit rate : 1 961 Kbps
Writing application : VirtualDubMod 1.5.10.3 (build 2550/release)
Writing library : VirtualDubMod build 2550/release
Video
ID : 0
Format : MPEG-4 Visual
Format profile : Advanced Simple@L5
Format settings, BVOP : 1
Format settings, QPel : No
Format settings, GMC : No warppoints
Format settings, Matrix : Custom
Codec ID : XVID
Codec ID/Hint : XviD
Duration : 1h 46mn
Bit rate : 1 504 Kbps
Width : 704 pixels
Height : 384 pixels
Display aspect ratio : 16:9
Frame rate : 23.976 fps
Color space : YUV
Chroma subsampling : 4:2:0
Bit depth : 8 bits
Scan type : Progressive
Compression mode : Lossy
Bits/(Pixel*Frame) : 0.232
Stream size : 1.12 GiB (77%)
Writing library : XviD 64
Audio
ID : 1
Format : AC-3
Format/Info : Audio Coding 3
Mode extension : CM (complete main)
Codec ID : 2000
Duration : 1h 46mn
Bit rate mode : Constant
Bit rate : 448 Kbps
Channel(s) : 6 channels
Channel positions : Front: L C R, Side: L R, LFE
Sampling rate : 48.0 KHz
Bit depth : 16 bits
Compression mode : Lossy
Stream size : 341 MiB (23%)
Alignment : Split accross interleaves
Interleave, duration : 42 ms (1.00 video frame)
Interleave, preload duration : 500 ms

Скриншоты




Скачать

Скачать торрент!

Как скачивать? · Что такое торрент? · Рейтинг и ограничения

Сайт не распространяет и не хранит электронные версии произведений, а лишь предоставляет доступ к создаваемому пользователями каталогу ссылок на торрент-файлы, которые содержат только списки хеш-сумм

[Профиль] [ЛС]
Показать сообщения:    
Ответить на тему

Текущее время: Сегодня 05:59

Часовой пояс: GMT + 4



Вы не можете начинать темы
Вы не можете отвечать на сообщения
Вы не можете редактировать свои сообщения
Вы не можете удалять свои сообщения
Вы не можете голосовать в опросах
Вы не можете прикреплять файлы к сообщениям
Вы не можете скачивать файлы