Перепутье / Crossroads (Джозеф Охайон / Joseph Ohayon) [2013, документально-познавательный, WEB-DLRip, AVС] (MVO)

Ответить на тему
 
Автор Сообщение

vospitanie ®

Стаж: 4 года 11 месяцев

Сообщений: 21

Пост Пост: #1 от 01-Май-2013 19:47

[Цитировать]

Перепутье -Название: Перепутье
Оригинальное название: Crossroads
Год выпуска: 2013
Страна: США
Производство: Crossroads The Film
Жанр: документально-познавательный
Продолжительность: 01:03:59
Перевод: профессиональный (многоголосый)
Субтитры: нет-В ролях: Амит Госвами / Amit Goswami, Нил Дональд Уолш / Neale Donald Walsch, Кэролайн Адамс Миллер /Caroline Adams Miller, Брюс Липтон / Bruce Lipton, Питер Джозеф / Peter Joseph, Джеймс Фаулер / James Fowler, Михаэль Лайтман / Michael Laitman, Эрвин Ласло / Ervin Laszlo, Дин Радин / Dean Radin, Дэйв Шерман / Dave Sherman, Анни Леонард / Annie Leonard, Джон Сент-Огастин / John St. Augustine
Режиссёр: Джозеф Охайон / Joseph Ohayon-Описание: «Перепутье: родовые схватки нового мира» - это документальный фильм, раскрывающий глубины текущего состояния человечества и появления нового восприятия мира, которое буквально заставляет вывернуть наизнанку все наши прошлые знания о мироустройстве. Сплетая воедино принципы и новейшие открытия биологии, психологии, кибернетики, теории систем, бизнеса, культуры и средств массовой информации, фильм раскрывает внутренний смысл состояния человечества в 21-м веке, призывая зрителей шире и глубже посмотреть на предположения о том, кто мы есть на самом деле, и почему мы делаем то, что делаем.
«Перепутье» рассматривает резкий рост социальных волнений, стихийных бедствий и экономических крахов в рамках эволюционного процесса. Фильм освещает шаги возникновения интегрального мировоззрения, которое прокладывает свой путь, используя всю мощь социальных сетей, и претендует на то, чтобы стать основой нашего личного и общественного сознания в скором будущем.
Этот фильм -- раскрытие современной реальности для всех зрителей и громкий призыв для тех, кто уже осознает, что мы стоим на пороге совершенно нового восприятия мира.-Качество: WEB-DLRip
Формат: MP4
Видеокодек: MPEG-4 AVC (H.264)
Аудиокодек: ACC
Видео: 720 x 400, 25,000 fps, 450 Kbps, 0.063 bit/pixel
Аудио: 44,1 kHz, 1 ch, 32 kb/s

Скриншоты

MediaInfo

Общее
Полное имя : film.Pereputje.2013.WEB-DLRip.Rus.Mp4.mp4
Формат : MPEG-4
Профиль формата : Base Media
Идентификатор кодека : isom
Размер файла : 224 Мбайт
Продолжительность : 1 ч. 3 м.
Режим общего битрейта : Переменный
Общий поток : 489 Кбит/сек
Программа кодирования : Lavf52.93.0
Видео
Идентификатор : 1
Формат : AVC
Формат/Информация : Advanced Video Codec
Профиль формата : Baseline@L3.0
Параметр CABAC формата : Нет
Параметр ReFrames формата : 1 кадр
Идентификатор кодека : avc1
Идентификатор кодека/Информация : Advanced Video Coding
Продолжительность : 1 ч. 3 м.
Битрейт : 450 Кбит/сек
Ширина : 720 пикселей
Высота : 400 пикселей
Соотношение сторон : 16:9
Режим частоты кадров : Постоянный
Частота кадров : 25,000 кадров/сек
Цветовое пространство : YUV
Субдискретизация насыщенности : 4:2:0
Битовая глубина : 8 бит
Тип развёртки : Прогрессивная
Бит/(Пиксели*Кадры) : 0.063
Размер потока : 207 Мбайт (93%)
Библиотека кодирования : x264 core 112
Аудио
Идентификатор : 2
Формат : AAC
Формат/Информация : Advanced Audio Codec
Профиль формата : LC
Идентификатор кодека : 40
Продолжительность : 1 ч. 3 м.
Вид битрейта : Переменный
Битрейт : 32,0 Кбит/сек
Каналы : 2 канала
Original Channel count : 1 канал
Расположение каналов : Front: C
Частота : 44,1 КГц
Метод сжатия : С потерями
Размер потока : 14,6 Мбайт (7%)
Скачать

Скачать торрент!

Как скачивать? · Что такое торрент? · Рейтинг и ограничения

Сайт не распространяет и не хранит электронные версии произведений, а лишь предоставляет доступ к создаваемому пользователями каталогу ссылок на торрент-файлы, которые содержат только списки хеш-сумм

[Профиль] [ЛС]
Показать сообщения:    
Ответить на тему

Текущее время: Сегодня 23:42

Часовой пояс: GMT + 4



Вы не можете начинать темы
Вы не можете отвечать на сообщения
Вы не можете редактировать свои сообщения
Вы не можете удалять свои сообщения
Вы не можете голосовать в опросах
Вы не можете прикреплять файлы к сообщениям
Вы не можете скачивать файлы