Дом с призраками / House Hunting (Эрик Херт / Eric Hurt) [2013, США, триллер, HDRip] VO ([Хихикающий доктор])

Ответить на тему
 
Автор Сообщение

user ®

Стаж: 7 лет 7 месяцев

Сообщений: 20008

Пост Пост: #1 от 04-Мар-2013 14:51

[Цитировать]

Дом с призраками / House Hunting
Страна: США
Жанр: триллер
Год выпуска: 2013
Продолжительность: 01:42:35
Перевод: Одноголосый закадровый [Хихикающий доктор]
Cубтитры: нет
Режиссер: Эрик Херт / Eric Hurt
В ролях: Марк Сингер, Арт ЛаФлёр, Хэйли Дюмон, Janey Gioiosa, Пол МакГилл, Ребека Кеннеди, Джеми Вэнс, Джон Коббб, Эмма Рэйн Лайл, Бриджет Гарвуд
Описание: Две семьи в день открытых дверей и в надежде найти дома их мечты,посещают некий таинственный дом . Но после того, как они входят внутрь, их мечты становится адским кошмаром, когда они понимают, что каждая попытка уехать ведет их назад, к парадной двери. Попавших в это чистилище семьи, преследует бывший владелец пустынного дома, который заявляет, что только одна из этих двух семей сможет назвать этот дом своим.
Сэмпл: http://multi-up.com/832075/
Качество видео: HDRip
Формат видео: AVI
Видео: 720x320 (2.25:1), 23.976 fps, XviD build 64 ~804 kbps avg, 0.14 bit/pixel
Аудио: 44.100 kHz, MPEG Layer 3, 2 ch, ~128.00 kbps avg

MediaInfo

Общее
Полное имя : C:\фильмы\Paris-Manhattan 2012\дом с призраком\House.Hunting.2013.WEB-DLRip.Xixidok.avi
Формат : AVI
Формат/Информация : Audio Video Interleave
Размер файла : 694 Мбайт
Продолжительность : 1 ч. 42 м.
Общий поток : 945 Кбит/сек
Программа кодирования : Lavf54.25.104
Видео
Идентификатор : 0
Формат : MPEG-4 Visual
Профиль формата : Simple@L3
Параметр BVOP формата : Нет
Параметр QPel формата : Нет
Параметр GMC формата : Без точки перехода
Параметр матрицы формата : Default (H.263)
Идентификатор кодека : XVID
Идентификатор кодека/Подсказка : XviD
Продолжительность : 1 ч. 42 м.
Битрейт : 805 Кбит/сек
Ширина : 720 пикселей
Высота : 320 пикселей
Соотношение сторон : 2,25:1
Частота кадров : 23,976 кадра/сек
Цветовое пространство : YUV
Субдискретизация насыщенности : 4:2:0
Битовая глубина : 8 бит
Тип развёртки : Прогрессивная
Метод сжатия : С потерями
Бит/(Пиксели*Кадры) : 0.146
Размер потока : 591 Мбайт (85%)
Библиотека кодирования : XviD 64
Аудио
Идентификатор : 1
Формат : MPEG Audio
Версия формата : Version 1
Профиль формата : Layer 3
Идентификатор кодека : 55
Идентификатор кодека/Подсказка : MP3
Продолжительность : 1 ч. 42 м.
Вид битрейта : Постоянный
Битрейт : 128 Кбит/сек
Каналы : 2 канала
Частота : 44,1 КГц
Метод сжатия : С потерями
Размер потока : 93,9 Мбайт (14%)
Выравнивание : Соединение по промежуткам
Продолжительность промежутка : 26 мс. (0,63 видеокадр)
Время предзагрузки промежутка : 26 мс.
Библиотека кодирования : LAME3.99.5

Скриншот c названием фильма

Скриншоты

Скачать

Скачать торрент!

Как скачивать? · Что такое торрент? · Рейтинг и ограничения

Сайт не распространяет и не хранит электронные версии произведений, а лишь предоставляет доступ к создаваемому пользователями каталогу ссылок на торрент-файлы, которые содержат только списки хеш-сумм

[Профиль] [ЛС]
Показать сообщения:    
Ответить на тему

Текущее время: Сегодня 22:25

Часовой пояс: GMT + 4



Вы не можете начинать темы
Вы не можете отвечать на сообщения
Вы не можете редактировать свои сообщения
Вы не можете удалять свои сообщения
Вы не можете голосовать в опросах
Вы не можете прикреплять файлы к сообщениям
Вы не можете скачивать файлы