Игровая комната / The Playroom (Джулия Дайер / Julia Dyer) [2013, США, драма, HDRip-AVC] + Sub Rus + Original Eng + Sub Eng

Ответить на тему
 
Автор Сообщение

user ®

Стаж: 7 лет 7 месяцев

Сообщений: 20008

Пост Пост: #1 от 04-Мар-2013 14:51

[Цитировать]

Игровая комната / The Playroom
Страна: США
Жанр: драма
Год выпуска: 2013
Продолжительность: 01:22:26
Перевод: Субтитры (Алексей Крылов aka rrrtttsss aka prostotak)
Cубтитры: английские (встроены в контейнер, отключаемые), русские (внешние)
Оригинальная аудиодорожка: английский
Режиссер: Джулия Дайер / Julia Dyer
В ролях: Джон Хоукс, Молли Паркер, Коди Линли, Оливия Хэррис, Лидия Маккей, Джонатан МакКлендон, Александра Доук, Джонатан Брукс, Иан Ветето
Описание: Две семьи, четверо детей. В то время, как взрослые сидят в гостиной на диване, попивая крепкие напитки и плетя интриги, дети закрылись на чердаке и рассказывают друг другу таинственную историю...
Доп. информация: Информация о фильме на IMDB - http://www.imdb.com/title/tt1815998
Релиз кинопортала Близзардкид.
Сэмпл: http://multi-up.com/823256
Качество видео: HDRip-AVC
Формат видео: MKV
Видео: AVC, 1280x720 (16:9), 23,976 fps, 3930 kbps
Аудио: AC-3, 48 KHz, 384 kbps, 6 ch, 16 bit
Формат субтитров: softsub (SRT)

MediaInfo

Общее
Уникальный идентификатор : 239534027237276940572009120531595504879 (0xB4349358EC105AE4A700DA1FD0D9ACEF)
Полное имя : H:\SEED\The Playroom (2013) rus\The Playroom (2013) rus.mkv
Формат : Matroska
Версия формата : Version 4 / Version 2
Размер файла : 2,53 Гбайт
Продолжительность : 1 ч. 22 м.
Общий поток : 4401 Кбит/сек
Название фильма : J.C.@NGB
Дата кодирования : UTC 2010-02-22 21:41:31
Программа кодирования : mkvmerge v5.9.0 ('On The Loose') built on Dec 9 2012 15:37:01
Библиотека кодирования : libebml v1.3.0 + libmatroska v1.4.0
Видео
Идентификатор : 1
Формат : AVC
Формат/Информация : Advanced Video Codec
Профиль формата : High@L3.1
Параметр CABAC формата : Нет
Параметр ReFrames формата : 2 кадра
Идентификатор кодека : V_MPEG4/ISO/AVC
Продолжительность : 1 ч. 22 м.
Битрейт : 3930 Кбит/сек
Ширина : 1280 пикселей
Высота : 720 пикселей
Соотношение сторон : 16:9
Режим частоты кадров : Постоянный
Частота кадров : 23,976 кадра/сек
Цветовое пространство : YUV
Субдискретизация насыщенности : 4:2:0
Битовая глубина : 8 бит
Тип развёртки : Прогрессивная
Бит/(Пиксели*Кадры) : 0.178
Размер потока : 2,26 Гбайт (89%)
Заголовок : J.C.@NGB
Язык : English
Default : Да
Forced : Нет
Основные цвета : BT.709
Характеристики трансфера : BT.709
Коэффициенты матрицы : BT.709
Аудио
Идентификатор : 2
Формат : AC-3
Формат/Информация : Audio Coding 3
Расширение режима : CM (complete main)
Параметр Endianness формата : Big
Идентификатор кодека : A_AC3
Продолжительность : 1 ч. 22 м.
Вид битрейта : Постоянный
Битрейт : 384 Кбит/сек
Каналы : 6 каналов
Расположение каналов : Front: L C R, Side: L R, LFE
Частота : 48,0 КГц
Битовая глубина : 16 бит
Метод сжатия : С потерями
Размер потока : 226 Мбайт (9%)
Язык : English
Default : Да
Forced : Нет
Текст
Идентификатор : 3
Формат : UTF-8
Идентификатор кодека : S_TEXT/UTF8
Идентификатор кодека/Информация : UTF-8 Plain Text
Язык : English
Default : Нет
Forced : Нет
Меню
00:00:00.000 : en:Chapter 1
00:11:54.000 : en:Chapter 2
00:22:20.000 : en:Chapter 3
00:27:36.000 : en:Chapter 4
00:36:37.000 : en:Chapter 5
00:48:35.000 : en:Chapter 6
00:57:30.000 : en:Chapter 7
01:05:34.000 : en:Chapter 8
01:15:44.000 : en:Chapter 9

Образец субтитров

1
00:00:22,790 --> 00:00:26,825
Давным-давно
2
00:00:26,827 --> 00:00:29,862
в одной далекой стране
3
00:00:31,398 --> 00:00:34,733
жили четверо детей,
4
00:00:36,503 --> 00:00:40,039
которые убежали из дома.
- Без родителей?
5
00:00:41,441 --> 00:00:44,376
У них не было родителей.
6
00:00:44,378 --> 00:00:46,011
Их родители были мертвы.
7
00:00:47,547 --> 00:00:50,115
Они погибли в авиакатастрофе.
8
00:00:50,117 --> 00:00:51,583
Какой ужас!
9
00:00:53,987 --> 00:00:55,454
И вот что произошло.
10
00:01:15,000 --> 00:01:19,000
ИГРОВАЯ КОМНАТА
11
00:01:19,612 --> 00:01:21,113
...Вышел ежик
из тумана,
12
00:01:21,115 --> 00:01:22,881
выпил сока
полстакана,
13
00:01:22,883 --> 00:01:26,018
посмотрел
в пустой стакан
14
00:01:26,020 --> 00:01:28,654
и опять ушел
в туман...
15
00:02:21,274 --> 00:02:22,574
Заедешь еще?
16
00:02:23,576 --> 00:02:25,244
А ты хочешь?
17
00:02:25,246 --> 00:02:25,844
А ты?
18
00:02:44,164 --> 00:02:45,797
Привет!
19
00:02:45,799 --> 00:02:47,599
Как дела?
20
00:03:07,287 --> 00:03:09,254
Сэм, снимай куртку.

Скриншот c названием фильма

Скриншоты

Скачать

Скачать торрент!

Как скачивать? · Что такое торрент? · Рейтинг и ограничения

Сайт не распространяет и не хранит электронные версии произведений, а лишь предоставляет доступ к создаваемому пользователями каталогу ссылок на торрент-файлы, которые содержат только списки хеш-сумм

[Профиль] [ЛС]
Показать сообщения:    
Ответить на тему

Текущее время: Сегодня 08:13

Часовой пояс: GMT + 4



Вы не можете начинать темы
Вы не можете отвечать на сообщения
Вы не можете редактировать свои сообщения
Вы не можете удалять свои сообщения
Вы не можете голосовать в опросах
Вы не можете прикреплять файлы к сообщениям
Вы не можете скачивать файлы