Мул / The Mule (Габриела Тальявини / Gabriela Tagliavini) [2013, США, триллер, HDRip] DVO

Ответить на тему
 
Автор Сообщение

user ®

Стаж: 7 лет 7 месяцев

Сообщений: 20008

Пост Пост: #1 от 04-Мар-2013 14:51

[Цитировать]

МулThe Mule«Trust no one»- Страна: США
Жанр: триллер
Год выпуска: 2013
Продолжительность: 01:36:20-Перевод: Любительский (двухголосый)
Субтитры: нет
Режиссер: Габриела Тальявини / Gabriela Tagliavini
В ролях: Шэрон Стоун, Билли Зейн, Роземберг Сальгадо, Мигель Родарт, Джованна Закариас, Ольга Сегура, Маноло Кардона, Гилмер Беджарано, Себестино Салазар, Промис ЛаМарко, Кристел Эдвардс, Фрэнк Герриш-Описание: Американская женщина репортер в поисках своего пропавшего брата, на фоне насилия и человеческой контрабанды на границе США с Мексикой-


MPAA: R - Лицам до 17 лет обязательно присутствие взрослого-Сценарий: Дон Фибигер / Don Fiebiger, Эми Колквист / Amy Kolquist
Продюсер: Лукас Джарач / Lucas Jarach, Джейсон Прайс / Jason Price, Чак Биндер / Chuck Binder, Майкл Корсо / Michael Corso, Энтони Гудас / Anthony Gudas
Оператор: Эндрю Стрэхорн / Andrew Strahorn
Композитор: Эмилио Каудерер / Emilio Kauderer, Себастьян Каудерер / Sebastian Kauderer
Бюджет: $5 000 000
Мировая премьера: 26 февраля 2013
Релиз на DVD: 20 марта 2013, «Кармен Видео», «ВС трейд»-Качество: HDRip (Исходник BDRip 720p)
Контейнер: AVI
Видео: XviD, 720x304 (2.35:1), 1829 kbps, 23,976 fps, 0,349 bpp
Аудио: AC3 / 2.0 / 48 kHz / 192 kbps / 16 bit-

Media Info

General
Complete name : F:\Mul.2013.L_HDRip.avi
Format : AVI
Format/Info : Audio Video Interleave
File size : 1.37 GiB
Duration : 1h 36mn
Overall bit rate : 2 031 Kbps
Movie name : Mul.2012.L.HDRip
Genre : Thriller
Writing application : VirtualDubMod 1.5.10.2 (build 2540/release)
Original source form/Name : Movie
Video
ID : 0
Format : MPEG-4 Visual
Format profile : Advanced Simple@L5
Format settings, BVOP : 1
Format settings, QPel : No
Format settings, GMC : No warppoints
Format settings, Matrix : Custom
Codec ID : XVID
Codec ID/Hint : XviD
Duration : 1h 36mn
Bit rate : 1 830 Kbps
Width : 720 pixels
Height : 304 pixels
Display aspect ratio : 2.35:1
Frame rate : 23.976 fps
Color space : YUV
Chroma subsampling : 4:2:0
Bit depth : 8 bits
Scan type : Progressive
Compression mode : Lossy
Bits/(Pixel*Frame) : 0.349
Stream size : 1.23 GiB (90%)
Writing library : XviD 1.2.1 (UTC 2008-12-04)
Audio
ID : 1
Format : AC-3
Format/Info : Audio Coding 3
Mode extension : CM (complete main)
Codec ID : 2000
Duration : 1h 36mn
Bit rate mode : Constant
Bit rate : 192 Kbps
Channel(s) : 2 channels
Channel positions : Front: L R
Sampling rate : 48.0 KHz
Bit depth : 16 bits
Compression mode : Lossy
Stream size : 132 MiB (9%)
Alignment : Split accross interleaves
Interleave, duration : 42 ms (1.00 video frame)
Interleave, preload duration : 500 ms

Скриншот с названием фильма

Скриншоты

Скачать

Скачать торрент!

Как скачивать? · Что такое торрент? · Рейтинг и ограничения

Сайт не распространяет и не хранит электронные версии произведений, а лишь предоставляет доступ к создаваемому пользователями каталогу ссылок на торрент-файлы, которые содержат только списки хеш-сумм

[Профиль] [ЛС]
Показать сообщения:    
Ответить на тему

Текущее время: Сегодня 10:49

Часовой пояс: GMT + 4



Вы не можете начинать темы
Вы не можете отвечать на сообщения
Вы не можете редактировать свои сообщения
Вы не можете удалять свои сообщения
Вы не можете голосовать в опросах
Вы не можете прикреплять файлы к сообщениям
Вы не можете скачивать файлы