Отряд героев / Company of Heroes (Дон Майкл Пол / Don Michael Paul) [2013, США, боевик, военный, HDRip] VO

Ответить на тему
 
Автор Сообщение

user ®

Стаж: 7 лет 7 месяцев

Сообщений: 20008

Пост Пост: #1 от 04-Мар-2013 14:51

[Цитировать]

Отряд героевCompany of Heroes- Страна: США
Жанр: боевик, военный
Год выпуска: 2013
Продолжительность: 01:40:28-Перевод: Одноголосый закадровый
Субтитры: нет
Режиссер: Дон Майкл Пол / Don Michael Paul
В ролях: Дмитрий Дьяченко, Винни Джонс, Нил МакДонаф, Том Сайзмор, Юрген Прохнов, Чад Коллинз, Мелиа Крейлинг-Описание: Американские солдаты, попавшие в тыл врага во время Второй мировой войны, узнают, что у Гитлера есть модернизированная бомба. Несмотря на все трудности, они отправляются на поиски ученого, отвечающего за эту бомбу.-


MPAA: R - Лицам до 17 лет обязательно присутствие взрослого-Сценарий: David Reed
Продюсер: Jeffrey Beach, Филлип Дж. Рот / Phillip J. Roth
Оператор: Мартин Чичов / Martin Chichov
Композитор: Фредерик Вьедманн / Frederik Wiedmann
Мировая премьера: 19 марта 2013
Релиз на DVD: 2 апреля 2013, «Columbia/Sony»-Качество: HDRip [рип с BDRip 720p]
Контейнер: AVI
Видео: XviD, 720x400 (16:9), 1622 kbps, 23,976 fps, 0,235 bpp
Аудио: AC3 / 5.1 / 48 kHz / 448 kbps / 16 bit-

Media Info

General
Complete name : F:\Otryad.geroev.2013.L1.HDRip.1.46.avi
Format : AVI
Format/Info : Audio Video Interleave
File size : 1.46 GiB
Duration : 1h 40mn
Overall bit rate : 2 080 Kbps
Writing application : VirtualDubMod 1.5.10.2 (build 2540/release)
Writing library : VirtualDubMod build 2540/release
Video
ID : 0
Format : MPEG-4 Visual
Format profile : Advanced Simple@L5
Format settings, BVOP : 2
Format settings, QPel : No
Format settings, GMC : No warppoints
Format settings, Matrix : Custom
Codec ID : XVID
Codec ID/Hint : XviD
Duration : 1h 40mn
Bit rate : 1 623 Kbps
Width : 720 pixels
Height : 400 pixels
Display aspect ratio : 16:9
Frame rate : 23.976 fps
Color space : YUV
Chroma subsampling : 4:2:0
Bit depth : 8 bits
Scan type : Progressive
Compression mode : Lossy
Bits/(Pixel*Frame) : 0.235
Stream size : 1.14 GiB (78%)
Writing library : XviD 1.2.1 (UTC 2008-12-04)
Audio
ID : 1
Format : AC-3
Format/Info : Audio Coding 3
Mode extension : CM (complete main)
Codec ID : 2000
Duration : 1h 40mn
Bit rate mode : Constant
Bit rate : 448 Kbps
Channel(s) : 6 channels
Channel positions : Front: L C R, Side: L R, LFE
Sampling rate : 48.0 KHz
Bit depth : 16 bits
Compression mode : Lossy
Stream size : 322 MiB (22%)
Alignment : Split accross interleaves
Interleave, duration : 42 ms (1.00 video frame)
Interleave, preload duration : 500 ms

Скриншот с названием фильма

Скриншоты

Скачать

Скачать торрент!

Как скачивать? · Что такое торрент? · Рейтинг и ограничения

Сайт не распространяет и не хранит электронные версии произведений, а лишь предоставляет доступ к создаваемому пользователями каталогу ссылок на торрент-файлы, которые содержат только списки хеш-сумм

[Профиль] [ЛС]
Показать сообщения:    
Ответить на тему

Текущее время: Сегодня 12:29

Часовой пояс: GMT + 4



Вы не можете начинать темы
Вы не можете отвечать на сообщения
Вы не можете редактировать свои сообщения
Вы не можете удалять свои сообщения
Вы не можете голосовать в опросах
Вы не можете прикреплять файлы к сообщениям
Вы не можете скачивать файлы