Повторяющаяся злоба / Onne (Созин Фукуи / Shozin Fukui) [2006 г., ужасы, DVDRip]

Ответить на тему
 
Автор Сообщение

sanja_180 ®

Стаж: 9 лет 9 месяцев

Сообщений: 14

Пост Пост: #1 от 03-Фев-2013 23:41

[Цитировать]

Повторяющаяся злоба / Onne
Год выпуска: 2006 г.
Страна: Япония
Жанр: ужасы
Продолжительность: 01:35:48
Перевод: Любительский (одноголосый закадровый) den904
Перевод на русский: Somebody
Релиз группа: Колобок
Проект: "Нет в Кино"
Cубтитры: нет
Режиссер: Созин Фукуи / Shozin Fukui
В ролях: Нобухиро Накамура, Кэнитиро Окада, Ацуко Оно
Описание: Пара девчонок знакомятся с парнем в Интернете. Им оказывается молодой человек, чьим единственным контактом со внешним миром являются Интернет и радио. Его параноидальная сущность крепнет все сильнее и со временем девушки становятся свидетелями того, как это безумие начинает проявляться через сеть. Возможно, это лишь только игра воображения, но возможно - он обладает чем-то особенным, паранормальными силами...
Сэмпл: http://www.sendspace.com/file/xv1f84
Качество видео: DVDRip
Формат видео: AVI
Видео кодек: XviD
Аудио кодек: MP3
Видео: 720x536 (1.34:1), 23.976 fps, 2052 kbps avg, 0.22 bit/pixel
Аудио: Русский, 48 kHz, MPEG layer 3, 128 kbps

MediaInfo

Format : AVI
Format/Info : Audio Video Interleave
File size : 1.47 GiB
Duration : 1h 35mn
Overall bit rate : 2 190 Kbps
Writing application : VirtualDubMod 1.5.10.2 (build 2540/release)
Writing library : VirtualDubMod build 2540/release
Video
ID : 0
Format : MPEG-4 Visual
Format profile : Advanced Simple@L5
Format settings, BVOP : 2
Format settings, QPel : No
Format settings, GMC : No warppoints
Format settings, Matrix : Custom
Codec ID : XVID
Codec ID/Hint : XviD
Duration : 1h 35mn
Bit rate : 2 052 Kbps
Width : 720 pixels
Height : 536 pixels
Display aspect ratio : 4:3
Frame rate : 23.976 fps
Color space : YUV
Chroma subsampling : 4:2:0
Bit depth : 8 bits
Scan type : Progressive
Compression mode : Lossy
Bits/(Pixel*Frame) : 0.222
Stream size : 1.37 GiB (94%)
Writing library : XviD 73
Audio
ID : 1
Format : MPEG Audio
Format version : Version 1
Format profile : Layer 3
Mode : Joint stereo
Mode extension : MS Stereo
Codec ID : 55
Codec ID/Hint : MP3
Duration : 1h 35mn
Bit rate mode : Constant
Bit rate : 128 Kbps
Channel(s) : 2 channels
Sampling rate : 48.0 KHz
Compression mode : Lossy
Stream size : 87.7 MiB (6%)
Alignment : Aligned on interleaves
Interleave, duration : 42 ms (1.00 video frame)
Interleave, preload duration : 504 ms

Скриншоты

Скачать

Скачать торрент! Повторяющаяся злоба / Onne (Созин Фукуи / Shozin Fukui) [2006 г., ужасы, DVDRip]

Как скачивать? · Что такое торрент? · Рейтинг и ограничения

Сайт не распространяет и не хранит электронные версии произведений, а лишь предоставляет доступ к создаваемому пользователями каталогу ссылок на торрент-файлы, которые содержат только списки хеш-сумм

[Профиль] [ЛС]
Показать сообщения:    
Ответить на тему

Текущее время: Сегодня 04:13

Часовой пояс: GMT + 4



Вы не можете начинать темы
Вы не можете отвечать на сообщения
Вы не можете редактировать свои сообщения
Вы не можете удалять свои сообщения
Вы не можете голосовать в опросах
Вы не можете прикреплять файлы к сообщениям
Вы не можете скачивать файлы