[VIDEO] Горячая жевательная резинка / Lemon Popsicle [9 фильмов из 9] (Боаз Дэвидсон, Вальтер Баннерт, P.Швабеницкий, Цахи Ной) [1978 - 1988, Комедия, мелодрама, DVDRip] [MP4, 480x]

Ответить на тему
 
Автор Сообщение

sanja_180 ®

Стаж: 6 лет 6 месяцев

Сообщений: 26

Пост Пост: #1 от 07-Янв-2013 01:46

[Цитировать]

Горячая жевательная резинка / Lemon Popsicle
Год выпуска: 1978 - 1988
Страна: Израиль
Жанр: Комедия, мелодрама
Продолжительность: 9 х ~ 01:30:00
Перевод: Любительcкий (одноголосый)
Русские субтитры: нет
Режиссер: Боаз Дэвидсон, Вальтер Баннерт, P.Швабеницкий, Цахи Ной
В ролях: Ифтах Катцур, Анат Атцмон, Джонатан Сигал, Захи Ной, Дебора Кейдар, Офелия Стрел, Менаше Варшавски, Луис Розенберг, Рэйчел Стейнер, Ариела Рабинович
Описание: “Горячая жевательная резинка: Мороженое на палочке” (ивр. אסקימו לימון‎ - “Эскимо лимон”) - молодёжная комедия израильского режиссёра Боаза Давидзона. Финансовый успех повлек за собой серию сиквелов. Фильм был представлен на Берлинском кинофестивале в 1978 году и получил положительные отзывы критиков, а затем успешно вышел в прокат в Германии, США и Англии. До СССР добрался в эпоху первых «подпольных» видеосалонов, в начале 1980-х.
Сюжет:
Эпоха 1950-х годов. В центре сюжета история о трёх молодых друзьях Момо, Бенци и Йюдале. Мальчики взрослеют и понемногу начинают интересоваться девушками и женщинами, искать опыт посредством подглядываний, танцев, разговоров про секс и более.
Они пытаются постичь женскую психологию, чтобы “вешать девушкам лапшу на уши”. И из-за этого попадают порой в непростые ситуации. И влюбляются.
Доп. информация: Весёлые похождения 3 друзей представлены в 9 фильмах (4 серия в 2х частях)

Описание фильмов:

Горячая жевательная резинка 1: Мороженое на палочке (1978) Первый эпизод из серии “Горячая жевательная резинка”. История трёх друзей Бенци, Момо и Йюдале. Подглядывания за девушками, танцы - шманцы - обжиманцы, разговоры про секс и поиски опытных женщин - на что еще взрослеющим мальчикам тратить свое время. А тут Бенци влюбляется в Нили …
Горячая жевательная резинка 2: Постоянная подружка (1979) Второй фильм из серии “Горячая жевательная резинка”. Бенци в поисках новой любви влюбляется с девушку по имени Тами. Тами становиться его постоянной подружкой. Это удается ему после длительного процесса ухаживания за ней. Его друзбя-Момо и Юдале тоже обзаводяться постоянными подружками. На одной из вечеринок Браха, соблазняет Бенци. Момо не смог утаить эту тайну. Сердца Юдале и Тами разбиты. Момо же тут как тут, и начинает охмурять Тами… Что же произойдет дальше…
Горячая жевательная резинка 3: Горячая жевательная резинка (1981) Один из самых известных фильмов этого цикла. Это именно тот фильм, который мы смотрели еще в СССР на затертых видеокассетах. Если помните, то дело было так: у Бенци новая появляется подружка. Веселая, рыжая Нурит. Но есть одно обстоятельство: она девственна… Бенци, вечный романтик, вновь встречает Нили, которая уже давно потеряла стыд. Ну и конечно же, как же без приключений с нимфоманками?
Горячая жевательная резинка 4: Трое в армии (1982) В этом фильме наши друзья идут в армию, где и продолжаются их весёлые приключения. Три “героя” на три месяца подписали контракт на службу в армии. Но ни одного из них не взволновала строгая дисциплина армейской жизни, они придумали как можно смутить и надуть офицеров. Результат ? Полный хаос и неразбериха…
Горячая жевательная резинка 4, часть 2: Частные манёвры (Охота на зайцев)/ Lemon Popsicle 4: Private Manoeuvres(Hasenjago)(1983)
4 часть - эпизод 2 из серии Эскимо лемон, где главный герой Йюдале в Армии. На базу приезжают важные гости - полковник из Щвейцарии и его ассинтентка. Воинской части назначают военные учения, которые они уже девять лет подряд проигрывают соседней казарме. Если они опять проиграют - командир обещает Шемешу, который занимается подготовкой не годных к строевой службе по состоянию здоровья новобранцев, сделать его ночным сторожем. И опять все солдаты попали в засаду ... Йюдале вместе с Шемешом переодевшись в женские платья - должны любой ценой выиграть это задание.
Горячая жевательная резинка 5: Маленький роман (1984) Момо, известный развратник, просит своего друга Бенци, приглядеть за своей сесторй Гили. Девушке 15 лет. Бенци, как настоящий романтик, влюбляется в красивую сестру Момо. Поняв, куда все это скатывается, Момо вмешивается в их отношения и заставляет Бенци отказаться от сестры. В фильме, как всегда, много музыки, романтики, разбитых сердец и конечно же куча приключений трех неразлучных друзей...
Горячая жевательная резинка 6: Поднимайте якорь(1985) В этом фильме наши друзья вербуются на туристическое судно в качестве матросов… Теперь наших друзей лишь двое. Момо уехал в Америку. Из Америки Момо не перестает зажигать своих друзей подробносями своих похождений. В порыве страсти, Юдале запутался в половой связи с одной девушкой. Убегая от разъяренного отца девушки Юдале прихватывает Бенци и вербуется вместе с ним на судно бороздящее Средиземное Море. К своему удивлению и ужасу узнает Юдале в боцмане разъяренного отца своей дамочки. Все развивается очень стремительно. Похождения, вновь романтическая любовь Бенци, на сей раз к капитанской дочке и даже приключения с бриллиантами…
Горячая жевательная резинка 7: Молодая любовь(1987) Седьмой эпизод из серии Горячая жевательная резинка. История трёх друзей Бенци, Момо и Йюдале. Йюдале вместе с друзьями попал в аварию и поломал новую машину родителей, чтоб починить машину все трое устраиваются на работу в гостиницу. В гостинице Бенци встречает свою бывшую подружку, и узнаёт что она обручена...
Горячая жевательная резинка 8: Летний блюз(1988) Восьмой эпизод из серии Эскимо лемон. История трёх друзей Бенци, Момо и Йюдале.Все трое решили открыть бизнес, а вернее клуб “West of Eden”, но для этого Момо должен закадрить Поли, дочь владельца аренды, а она простушка и не во вкусе Момо…
Исходник (ссылка): неизвестный
Качество: DVDRip
Формат: MP4
Видео кодек: x264
Аудио кодек: AAC
Видео: AVC (High@L2.1), 480х264, (16:9), 350 kbps, 25,000 fps
Аудио: AAC ( LC), 128 kbps, 48,0 kHz, 2 ch

ТХ/MediaInfo

Общее
Полное имя : F:\video\Горячая жевательная резинка 9 из 9 (1978 - 1988)\1 фильм горячая жевательная резинка.mp4
Формат : MPEG-4
Профиль формата : Base Media
Идентификатор кодека : isom
Размер файла : 318 Мбайт
Продолжительность : 1 ч. 32 м.
Режим общего битрейта : Переменный
Общий поток : 482 Кбит/сек
Дата кодирования : UTC 2012-06-18 17:55:03
Дата пометки : UTC 2012-06-18 17:55:03
Видео
Идентификатор : 1
Формат : AVC
Формат/Информация : Advanced Video Codec
Профиль формата : High@L2.1
Параметр CABAC формата : Да
Параметр ReFrames формата : 4 кадра
Идентификатор кодека : avc1
Идентификатор кодека/Информация : Advanced Video Coding
Продолжительность : 1 ч. 32 м.
Битрейт : 350 Кбит/сек
Максимальный битрейт : 1105 Кбит/сек
Ширина : 480 пикселей
Высота : 264 пикселя
Соотношение сторон : 16:9
Режим частоты кадров : Постоянный
Частота кадров : 25,000 кадров/сек
Цветовое пространство : YUV
Субдискретизация насыщенности : 4:2:0
Битовая глубина : 8 бит
Тип развёртки : Прогрессивная
Бит/(Пиксели*Кадры) : 0.110
Размер потока : 231 Мбайт (73%)
Библиотека кодирования : x264 core 114 r1924 08d04a4
Настройки программы : cabac=1 / ref=3 / deblock=1:0:0 / analyse=0x3:0x113 / me=hex / subme=7 / psy=1 / psy_rd=1.00:0.00 / mixed_ref=1 / me_range=16 / chroma_me=1 / trellis=1 / 8x8dct=1 / cqm=0 / deadzone=21,11 / fast_pskip=1 / chroma_qp_offset=-2 / threads=6 / sliced_threads=0 / nr=0 / decimate=1 / interlaced=0 / constrained_intra=0 / bframes=3 / b_pyramid=2 / b_adapt=1 / b_bias=0 / direct=1 / weightb=1 / open_gop=0 / weightp=2 / keyint=250 / keyint_min=25 / scenecut=40 / intra_refresh=0 / rc_lookahead=40 / rc=2pass / mbtree=1 / bitrate=350 / ratetol=1.0 / qcomp=0.60 / qpmin=0 / qpmax=69 / qpstep=4 / cplxblur=20.0 / qblur=0.5 / ip_ratio=1.40 / aq=1:1.00
Дата кодирования : UTC 2012-06-18 17:55:03
Дата пометки : UTC 2012-06-18 17:55:18
Аудио
Идентификатор : 2
Формат : AAC
Формат/Информация : Advanced Audio Codec
Профиль формата : LC
Идентификатор кодека : 40
Продолжительность : 1 ч. 32 м.
Вид битрейта : Переменный
Битрейт : 128 Кбит/сек
Максимальный битрейт : 153 Кбит/сек
Каналы : 2 канала
Расположение каналов : Front: L R
Частота : 48,0 КГц
Метод сжатия : С потерями
Задержка видео : 80 мс.
Размер потока : 84,5 Мбайт (27%)
Дата кодирования : UTC 2012-06-18 17:55:12
Дата пометки : UTC 2012-06-18 17:55:18
Общее
Полное имя : F:\video\Горячая жевательная резинка 9 из 9 (1978 - 1988)\2 фильм горячая жевательная резинка.mp4
Формат : MPEG-4
Профиль формата : Base Media
Идентификатор кодека : isom
Размер файла : 290 Мбайт
Продолжительность : 1 ч. 24 м.
Режим общего битрейта : Переменный
Общий поток : 482 Кбит/сек
Дата кодирования : UTC 2012-06-18 18:51:11
Дата пометки : UTC 2012-06-18 18:51:11
Видео
Идентификатор : 1
Формат : AVC
Формат/Информация : Advanced Video Codec
Профиль формата : High@L2.1
Параметр CABAC формата : Да
Параметр ReFrames формата : 4 кадра
Идентификатор кодека : avc1
Идентификатор кодека/Информация : Advanced Video Coding
Продолжительность : 1 ч. 24 м.
Битрейт : 350 Кбит/сек
Максимальный битрейт : 2268 Кбит/сек
Ширина : 480 пикселей
Высота : 264 пикселя
Соотношение сторон : 16:9
Режим частоты кадров : Постоянный
Частота кадров : 25,000 кадров/сек
Цветовое пространство : YUV
Субдискретизация насыщенности : 4:2:0
Битовая глубина : 8 бит
Тип развёртки : Прогрессивная
Бит/(Пиксели*Кадры) : 0.110
Размер потока : 211 Мбайт (73%)
Библиотека кодирования : x264 core 114 r1924 08d04a4
Настройки программы : cabac=1 / ref=3 / deblock=1:0:0 / analyse=0x3:0x113 / me=hex / subme=7 / psy=1 / psy_rd=1.00:0.00 / mixed_ref=1 / me_range=16 / chroma_me=1 / trellis=1 / 8x8dct=1 / cqm=0 / deadzone=21,11 / fast_pskip=1 / chroma_qp_offset=-2 / threads=6 / sliced_threads=0 / nr=0 / decimate=1 / interlaced=0 / constrained_intra=0 / bframes=3 / b_pyramid=2 / b_adapt=1 / b_bias=0 / direct=1 / weightb=1 / open_gop=0 / weightp=2 / keyint=250 / keyint_min=25 / scenecut=40 / intra_refresh=0 / rc_lookahead=40 / rc=2pass / mbtree=1 / bitrate=350 / ratetol=1.0 / qcomp=0.60 / qpmin=0 / qpmax=69 / qpstep=4 / cplxblur=20.0 / qblur=0.5 / ip_ratio=1.40 / aq=1:1.00
Дата кодирования : UTC 2012-06-18 18:51:11
Дата пометки : UTC 2012-06-18 18:51:19
Аудио
Идентификатор : 2
Формат : AAC
Формат/Информация : Advanced Audio Codec
Профиль формата : LC
Идентификатор кодека : 40
Продолжительность : 1 ч. 24 м.
Вид битрейта : Переменный
Битрейт : 128 Кбит/сек
Максимальный битрейт : 159 Кбит/сек
Каналы : 2 канала
Расположение каналов : Front: L R
Частота : 48,0 КГц
Метод сжатия : С потерями
Задержка видео : 80 мс.
Размер потока : 77,1 Мбайт (27%)
Дата кодирования : UTC 2012-06-18 18:51:17
Дата пометки : UTC 2012-06-18 18:51:19
Общее
Полное имя : F:\video\Горячая жевательная резинка 9 из 9 (1978 - 1988)\3 фильм горячая жевательная резинка.mp4
Формат : MPEG-4
Профиль формата : Base Media
Идентификатор кодека : isom
Размер файла : 313 Мбайт
Продолжительность : 1 ч. 30 м.
Режим общего битрейта : Переменный
Общий поток : 482 Кбит/сек
Дата кодирования : UTC 2012-06-18 19:52:29
Дата пометки : UTC 2012-06-18 19:52:29
Видео
Идентификатор : 1
Формат : AVC
Формат/Информация : Advanced Video Codec
Профиль формата : High@L2.1
Параметр CABAC формата : Да
Параметр ReFrames формата : 4 кадра
Идентификатор кодека : avc1
Идентификатор кодека/Информация : Advanced Video Coding
Продолжительность : 1 ч. 30 м.
Битрейт : 350 Кбит/сек
Максимальный битрейт : 2039 Кбит/сек
Ширина : 480 пикселей
Высота : 264 пикселя
Соотношение сторон : 16:9
Режим частоты кадров : Постоянный
Частота кадров : 25,000 кадров/сек
Цветовое пространство : YUV
Субдискретизация насыщенности : 4:2:0
Битовая глубина : 8 бит
Тип развёртки : Прогрессивная
Бит/(Пиксели*Кадры) : 0.110
Размер потока : 227 Мбайт (73%)
Библиотека кодирования : x264 core 114 r1924 08d04a4
Настройки программы : cabac=1 / ref=3 / deblock=1:0:0 / analyse=0x3:0x113 / me=hex / subme=7 / psy=1 / psy_rd=1.00:0.00 / mixed_ref=1 / me_range=16 / chroma_me=1 / trellis=1 / 8x8dct=1 / cqm=0 / deadzone=21,11 / fast_pskip=1 / chroma_qp_offset=-2 / threads=6 / sliced_threads=0 / nr=0 / decimate=1 / interlaced=0 / constrained_intra=0 / bframes=3 / b_pyramid=2 / b_adapt=1 / b_bias=0 / direct=1 / weightb=1 / open_gop=0 / weightp=2 / keyint=250 / keyint_min=25 / scenecut=40 / intra_refresh=0 / rc_lookahead=40 / rc=2pass / mbtree=1 / bitrate=350 / ratetol=1.0 / qcomp=0.60 / qpmin=0 / qpmax=69 / qpstep=4 / cplxblur=20.0 / qblur=0.5 / ip_ratio=1.40 / aq=1:1.00
Дата кодирования : UTC 2012-06-18 19:52:29
Дата пометки : UTC 2012-06-18 19:52:38
Аудио
Идентификатор : 2
Формат : AAC
Формат/Информация : Advanced Audio Codec
Профиль формата : LC
Идентификатор кодека : 40
Продолжительность : 1 ч. 30 м.
Вид битрейта : Переменный
Битрейт : 128 Кбит/сек
Максимальный битрейт : 149 Кбит/сек
Каналы : 2 канала
Расположение каналов : Front: L R
Частота : 48,0 КГц
Метод сжатия : С потерями
Задержка видео : 80 мс.
Размер потока : 83,0 Мбайт (27%)
Дата кодирования : UTC 2012-06-18 19:52:36
Дата пометки : UTC 2012-06-18 19:52:38
Общее
Полное имя : F:\video\Горячая жевательная резинка 9 из 9 (1978 - 1988)\4 фильм горячая жевательная резинка.mp4
Формат : MPEG-4
Профиль формата : Base Media
Идентификатор кодека : isom
Размер файла : 330 Мбайт
Продолжительность : 1 ч. 35 м.
Режим общего битрейта : Переменный
Общий поток : 482 Кбит/сек
Дата кодирования : UTC 2012-06-18 20:51:46
Дата пометки : UTC 2012-06-18 20:51:46
Видео
Идентификатор : 1
Формат : AVC
Формат/Информация : Advanced Video Codec
Профиль формата : High@L2.1
Параметр CABAC формата : Да
Параметр ReFrames формата : 4 кадра
Идентификатор кодека : avc1
Идентификатор кодека/Информация : Advanced Video Coding
Продолжительность : 1 ч. 35 м.
Битрейт : 350 Кбит/сек
Максимальный битрейт : 1959 Кбит/сек
Ширина : 480 пикселей
Высота : 264 пикселя
Соотношение сторон : 16:9
Режим частоты кадров : Постоянный
Частота кадров : 25,000 кадров/сек
Цветовое пространство : YUV
Субдискретизация насыщенности : 4:2:0
Битовая глубина : 8 бит
Тип развёртки : Прогрессивная
Бит/(Пиксели*Кадры) : 0.110
Размер потока : 239 Мбайт (73%)
Библиотека кодирования : x264 core 114 r1924 08d04a4
Настройки программы : cabac=1 / ref=3 / deblock=1:0:0 / analyse=0x3:0x113 / me=hex / subme=7 / psy=1 / psy_rd=1.00:0.00 / mixed_ref=1 / me_range=16 / chroma_me=1 / trellis=1 / 8x8dct=1 / cqm=0 / deadzone=21,11 / fast_pskip=1 / chroma_qp_offset=-2 / threads=6 / sliced_threads=0 / nr=0 / decimate=1 / interlaced=0 / constrained_intra=0 / bframes=3 / b_pyramid=2 / b_adapt=1 / b_bias=0 / direct=1 / weightb=1 / open_gop=0 / weightp=2 / keyint=250 / keyint_min=25 / scenecut=40 / intra_refresh=0 / rc_lookahead=40 / rc=2pass / mbtree=1 / bitrate=350 / ratetol=1.0 / qcomp=0.60 / qpmin=0 / qpmax=69 / qpstep=4 / cplxblur=20.0 / qblur=0.5 / ip_ratio=1.40 / aq=1:1.00
Дата кодирования : UTC 2012-06-18 20:51:46
Дата пометки : UTC 2012-06-18 20:51:55
Аудио
Идентификатор : 2
Формат : AAC
Формат/Информация : Advanced Audio Codec
Профиль формата : LC
Идентификатор кодека : 40
Продолжительность : 1 ч. 35 м.
Вид битрейта : Переменный
Битрейт : 128 Кбит/сек
Максимальный битрейт : 159 Кбит/сек
Каналы : 2 канала
Расположение каналов : Front: L R
Частота : 48,0 КГц
Метод сжатия : С потерями
Задержка видео : 80 мс.
Размер потока : 87,5 Мбайт (27%)
Дата кодирования : UTC 2012-06-18 20:51:53
Дата пометки : UTC 2012-06-18 20:51:55
Общее
Полное имя : F:\video\Горячая жевательная резинка 9 из 9 (1978 - 1988)\4 фильм.часть 2. горячая жевательная резинка.mp4
Формат : MPEG-4
Профиль формата : Base Media
Идентификатор кодека : isom
Размер файла : 272 Мбайт
Продолжительность : 1 ч. 18 м.
Режим общего битрейта : Переменный
Общий поток : 482 Кбит/сек
Дата кодирования : UTC 2012-06-19 00:56:28
Дата пометки : UTC 2012-06-19 00:56:28
Видео
Идентификатор : 1
Формат : AVC
Формат/Информация : Advanced Video Codec
Профиль формата : High@L2.1
Параметр CABAC формата : Да
Параметр ReFrames формата : 4 кадра
Идентификатор кодека : avc1
Идентификатор кодека/Информация : Advanced Video Coding
Продолжительность : 1 ч. 18 м.
Битрейт : 350 Кбит/сек
Максимальный битрейт : 1497 Кбит/сек
Ширина : 480 пикселей
Высота : 264 пикселя
Соотношение сторон : 16:9
Режим частоты кадров : Постоянный
Частота кадров : 25,000 кадров/сек
Цветовое пространство : YUV
Субдискретизация насыщенности : 4:2:0
Битовая глубина : 8 бит
Тип развёртки : Прогрессивная
Бит/(Пиксели*Кадры) : 0.110
Размер потока : 197 Мбайт (73%)
Библиотека кодирования : x264 core 114 r1924 08d04a4
Настройки программы : cabac=1 / ref=3 / deblock=1:0:0 / analyse=0x3:0x113 / me=hex / subme=7 / psy=1 / psy_rd=1.00:0.00 / mixed_ref=1 / me_range=16 / chroma_me=1 / trellis=1 / 8x8dct=1 / cqm=0 / deadzone=21,11 / fast_pskip=1 / chroma_qp_offset=-2 / threads=6 / sliced_threads=0 / nr=0 / decimate=1 / interlaced=0 / constrained_intra=0 / bframes=3 / b_pyramid=2 / b_adapt=1 / b_bias=0 / direct=1 / weightb=1 / open_gop=0 / weightp=2 / keyint=250 / keyint_min=25 / scenecut=40 / intra_refresh=0 / rc_lookahead=40 / rc=2pass / mbtree=1 / bitrate=350 / ratetol=1.0 / qcomp=0.60 / qpmin=0 / qpmax=69 / qpstep=4 / cplxblur=20.0 / qblur=0.5 / ip_ratio=1.40 / aq=1:1.00
Дата кодирования : UTC 2012-06-19 00:56:28
Дата пометки : UTC 2012-06-19 00:56:34
Аудио
Идентификатор : 2
Формат : AAC
Формат/Информация : Advanced Audio Codec
Профиль формата : LC
Идентификатор кодека : 40
Продолжительность : 1 ч. 18 м.
Вид битрейта : Переменный
Битрейт : 128 Кбит/сек
Максимальный битрейт : 143 Кбит/сек
Каналы : 2 канала
Расположение каналов : Front: L R
Частота : 48,0 КГц
Метод сжатия : С потерями
Задержка видео : 80 мс.
Размер потока : 72,2 Мбайт (27%)
Дата кодирования : UTC 2012-06-19 00:56:33
Дата пометки : UTC 2012-06-19 00:56:34
Общее
Полное имя : F:\video\Горячая жевательная резинка 9 из 9 (1978 - 1988)\5 фильм горячая жевательная резинка.mp4
Формат : MPEG-4
Профиль формата : Base Media
Идентификатор кодека : isom
Размер файла : 280 Мбайт
Продолжительность : 1 ч. 21 м.
Режим общего битрейта : Переменный
Общий поток : 482 Кбит/сек
Дата кодирования : UTC 2012-06-18 21:40:14
Дата пометки : UTC 2012-06-18 21:40:14
Видео
Идентификатор : 1
Формат : AVC
Формат/Информация : Advanced Video Codec
Профиль формата : High@L2.1
Параметр CABAC формата : Да
Параметр ReFrames формата : 4 кадра
Идентификатор кодека : avc1
Идентификатор кодека/Информация : Advanced Video Coding
Продолжительность : 1 ч. 21 м.
Битрейт : 350 Кбит/сек
Максимальный битрейт : 1705 Кбит/сек
Ширина : 480 пикселей
Высота : 264 пикселя
Соотношение сторон : 16:9
Режим частоты кадров : Постоянный
Частота кадров : 25,000 кадров/сек
Цветовое пространство : YUV
Субдискретизация насыщенности : 4:2:0
Битовая глубина : 8 бит
Тип развёртки : Прогрессивная
Бит/(Пиксели*Кадры) : 0.110
Размер потока : 203 Мбайт (73%)
Библиотека кодирования : x264 core 114 r1924 08d04a4
Настройки программы : cabac=1 / ref=3 / deblock=1:0:0 / analyse=0x3:0x113 / me=hex / subme=7 / psy=1 / psy_rd=1.00:0.00 / mixed_ref=1 / me_range=16 / chroma_me=1 / trellis=1 / 8x8dct=1 / cqm=0 / deadzone=21,11 / fast_pskip=1 / chroma_qp_offset=-2 / threads=6 / sliced_threads=0 / nr=0 / decimate=1 / interlaced=0 / constrained_intra=0 / bframes=3 / b_pyramid=2 / b_adapt=1 / b_bias=0 / direct=1 / weightb=1 / open_gop=0 / weightp=2 / keyint=250 / keyint_min=25 / scenecut=40 / intra_refresh=0 / rc_lookahead=40 / rc=2pass / mbtree=1 / bitrate=350 / ratetol=1.0 / qcomp=0.60 / qpmin=0 / qpmax=69 / qpstep=4 / cplxblur=20.0 / qblur=0.5 / ip_ratio=1.40 / aq=1:1.00
Дата кодирования : UTC 2012-06-18 21:40:14
Дата пометки : UTC 2012-06-18 21:40:21
Аудио
Идентификатор : 2
Формат : AAC
Формат/Информация : Advanced Audio Codec
Профиль формата : LC
Идентификатор кодека : 40
Продолжительность : 1 ч. 21 м.
Вид битрейта : Переменный
Битрейт : 128 Кбит/сек
Максимальный битрейт : 159 Кбит/сек
Каналы : 2 канала
Расположение каналов : Front: L R
Частота : 48,0 КГц
Метод сжатия : С потерями
Задержка видео : 80 мс.
Размер потока : 74,3 Мбайт (27%)
Дата кодирования : UTC 2012-06-18 21:40:19
Дата пометки : UTC 2012-06-18 21:40:21
Общее
Полное имя : F:\video\Горячая жевательная резинка 9 из 9 (1978 - 1988)\6 фильм горячая жевательная резинка.mp4
Формат : MPEG-4
Профиль формата : Base Media
Идентификатор кодека : isom
Размер файла : 289 Мбайт
Продолжительность : 1 ч. 23 м.
Режим общего битрейта : Переменный
Общий поток : 482 Кбит/сек
Дата кодирования : UTC 2012-06-18 22:29:57
Дата пометки : UTC 2012-06-18 22:29:57
Видео
Идентификатор : 1
Формат : AVC
Формат/Информация : Advanced Video Codec
Профиль формата : High@L2.1
Параметр CABAC формата : Да
Параметр ReFrames формата : 4 кадра
Идентификатор кодека : avc1
Идентификатор кодека/Информация : Advanced Video Coding
Продолжительность : 1 ч. 23 м.
Битрейт : 350 Кбит/сек
Максимальный битрейт : 3490 Кбит/сек
Ширина : 480 пикселей
Высота : 264 пикселя
Соотношение сторон : 16:9
Режим частоты кадров : Постоянный
Частота кадров : 25,000 кадров/сек
Цветовое пространство : YUV
Субдискретизация насыщенности : 4:2:0
Битовая глубина : 8 бит
Тип развёртки : Прогрессивная
Бит/(Пиксели*Кадры) : 0.110
Размер потока : 210 Мбайт (73%)
Библиотека кодирования : x264 core 114 r1924 08d04a4
Настройки программы : cabac=1 / ref=3 / deblock=1:0:0 / analyse=0x3:0x113 / me=hex / subme=7 / psy=1 / psy_rd=1.00:0.00 / mixed_ref=1 / me_range=16 / chroma_me=1 / trellis=1 / 8x8dct=1 / cqm=0 / deadzone=21,11 / fast_pskip=1 / chroma_qp_offset=-2 / threads=6 / sliced_threads=0 / nr=0 / decimate=1 / interlaced=0 / constrained_intra=0 / bframes=3 / b_pyramid=2 / b_adapt=1 / b_bias=0 / direct=1 / weightb=1 / open_gop=0 / weightp=2 / keyint=250 / keyint_min=25 / scenecut=40 / intra_refresh=0 / rc_lookahead=40 / rc=2pass / mbtree=1 / bitrate=350 / ratetol=1.0 / qcomp=0.60 / qpmin=0 / qpmax=69 / qpstep=4 / cplxblur=20.0 / qblur=0.5 / ip_ratio=1.40 / aq=1:1.00
Дата кодирования : UTC 2012-06-18 22:29:57
Дата пометки : UTC 2012-06-18 22:30:04
Аудио
Идентификатор : 2
Формат : AAC
Формат/Информация : Advanced Audio Codec
Профиль формата : LC
Идентификатор кодека : 40
Продолжительность : 1 ч. 23 м.
Вид битрейта : Переменный
Битрейт : 128 Кбит/сек
Максимальный битрейт : 169 Кбит/сек
Каналы : 2 канала
Расположение каналов : Front: L R
Частота : 48,0 КГц
Метод сжатия : С потерями
Задержка видео : 80 мс.
Размер потока : 76,7 Мбайт (27%)
Дата кодирования : UTC 2012-06-18 22:30:02
Дата пометки : UTC 2012-06-18 22:30:04
Общее
Полное имя : F:\video\Горячая жевательная резинка 9 из 9 (1978 - 1988)\7 фильм горячая жевательная резинка.mp4
Формат : MPEG-4
Профиль формата : Base Media
Идентификатор кодека : isom
Размер файла : 298 Мбайт
Продолжительность : 1 ч. 26 м.
Режим общего битрейта : Переменный
Общий поток : 482 Кбит/сек
Дата кодирования : UTC 2012-06-18 23:20:08
Дата пометки : UTC 2012-06-18 23:20:08
Видео
Идентификатор : 1
Формат : AVC
Формат/Информация : Advanced Video Codec
Профиль формата : High@L2.1
Параметр CABAC формата : Да
Параметр ReFrames формата : 4 кадра
Идентификатор кодека : avc1
Идентификатор кодека/Информация : Advanced Video Coding
Продолжительность : 1 ч. 26 м.
Битрейт : 350 Кбит/сек
Максимальный битрейт : 2002 Кбит/сек
Ширина : 480 пикселей
Высота : 264 пикселя
Соотношение сторон : 16:9
Режим частоты кадров : Постоянный
Частота кадров : 25,000 кадров/сек
Цветовое пространство : YUV
Субдискретизация насыщенности : 4:2:0
Битовая глубина : 8 бит
Тип развёртки : Прогрессивная
Бит/(Пиксели*Кадры) : 0.110
Размер потока : 216 Мбайт (73%)
Библиотека кодирования : x264 core 114 r1924 08d04a4
Настройки программы : cabac=1 / ref=3 / deblock=1:0:0 / analyse=0x3:0x113 / me=hex / subme=7 / psy=1 / psy_rd=1.00:0.00 / mixed_ref=1 / me_range=16 / chroma_me=1 / trellis=1 / 8x8dct=1 / cqm=0 / deadzone=21,11 / fast_pskip=1 / chroma_qp_offset=-2 / threads=6 / sliced_threads=0 / nr=0 / decimate=1 / interlaced=0 / constrained_intra=0 / bframes=3 / b_pyramid=2 / b_adapt=1 / b_bias=0 / direct=1 / weightb=1 / open_gop=0 / weightp=2 / keyint=250 / keyint_min=25 / scenecut=40 / intra_refresh=0 / rc_lookahead=40 / rc=2pass / mbtree=1 / bitrate=350 / ratetol=1.0 / qcomp=0.60 / qpmin=0 / qpmax=69 / qpstep=4 / cplxblur=20.0 / qblur=0.5 / ip_ratio=1.40 / aq=1:1.00
Дата кодирования : UTC 2012-06-18 23:20:08
Дата пометки : UTC 2012-06-18 23:20:15
Аудио
Идентификатор : 2
Формат : AAC
Формат/Информация : Advanced Audio Codec
Профиль формата : LC
Идентификатор кодека : 40
Продолжительность : 1 ч. 26 м.
Вид битрейта : Переменный
Битрейт : 128 Кбит/сек
Максимальный битрейт : 159 Кбит/сек
Каналы : 2 канала
Расположение каналов : Front: L R
Частота : 48,0 КГц
Метод сжатия : С потерями
Задержка видео : 80 мс.
Размер потока : 79,0 Мбайт (27%)
Дата кодирования : UTC 2012-06-18 23:20:13
Дата пометки : UTC 2012-06-18 23:20:15
Общее
Полное имя : F:\video\Горячая жевательная резинка 9 из 9 (1978 - 1988)\8 фильм горячая жевательная резинка.mp4
Формат : MPEG-4
Профиль формата : Base Media
Идентификатор кодека : isom
Размер файла : 294 Мбайт
Продолжительность : 1 ч. 25 м.
Режим общего битрейта : Переменный
Общий поток : 482 Кбит/сек
Дата кодирования : UTC 2012-06-19 00:09:18
Дата пометки : UTC 2012-06-19 00:09:18
Видео
Идентификатор : 1
Формат : AVC
Формат/Информация : Advanced Video Codec
Профиль формата : High@L2.1
Параметр CABAC формата : Да
Параметр ReFrames формата : 4 кадра
Идентификатор кодека : avc1
Идентификатор кодека/Информация : Advanced Video Coding
Продолжительность : 1 ч. 25 м.
Битрейт : 350 Кбит/сек
Максимальный битрейт : 3887 Кбит/сек
Ширина : 480 пикселей
Высота : 264 пикселя
Соотношение сторон : 16:9
Режим частоты кадров : Постоянный
Частота кадров : 25,000 кадров/сек
Цветовое пространство : YUV
Субдискретизация насыщенности : 4:2:0
Битовая глубина : 8 бит
Тип развёртки : Прогрессивная
Бит/(Пиксели*Кадры) : 0.110
Размер потока : 214 Мбайт (73%)
Библиотека кодирования : x264 core 114 r1924 08d04a4
Настройки программы : cabac=1 / ref=3 / deblock=1:0:0 / analyse=0x3:0x113 / me=hex / subme=7 / psy=1 / psy_rd=1.00:0.00 / mixed_ref=1 / me_range=16 / chroma_me=1 / trellis=1 / 8x8dct=1 / cqm=0 / deadzone=21,11 / fast_pskip=1 / chroma_qp_offset=-2 / threads=6 / sliced_threads=0 / nr=0 / decimate=1 / interlaced=0 / constrained_intra=0 / bframes=3 / b_pyramid=2 / b_adapt=1 / b_bias=0 / direct=1 / weightb=1 / open_gop=0 / weightp=2 / keyint=250 / keyint_min=25 / scenecut=40 / intra_refresh=0 / rc_lookahead=40 / rc=2pass / mbtree=1 / bitrate=350 / ratetol=1.0 / qcomp=0.60 / qpmin=0 / qpmax=69 / qpstep=4 / cplxblur=20.0 / qblur=0.5 / ip_ratio=1.40 / aq=1:1.00
Дата кодирования : UTC 2012-06-19 00:09:18
Дата пометки : UTC 2012-06-19 00:09:25
Аудио
Идентификатор : 2
Формат : AAC
Формат/Информация : Advanced Audio Codec
Профиль формата : LC
Идентификатор кодека : 40
Продолжительность : 1 ч. 25 м.
Вид битрейта : Переменный
Битрейт : 128 Кбит/сек
Максимальный битрейт : 212 Кбит/сек
Каналы : 2 канала
Расположение каналов : Front: L R
Частота : 48,0 КГц
Метод сжатия : С потерями
Задержка видео : 80 мс.
Размер потока : 78,2 Мбайт (27%)
Дата кодирования : UTC 2012-06-19 00:09:23
Дата пометки : UTC 2012-06-19 00:09:25

Скриншоты

Скачать

Скачать торрент!

Как скачивать? · Что такое торрент? · Рейтинг и ограничения

Сайт не распространяет и не хранит электронные версии произведений, а лишь предоставляет доступ к создаваемому пользователями каталогу ссылок на торрент-файлы, которые содержат только списки хеш-сумм

[Профиль] [ЛС]

Jes

Стаж: 4 года 11 месяцев

Сообщений: 8

Пост Пост: #2 от 06-Фев-2013 10:41 (спустя 30 дней)

[Цитировать]

Здравствуйте, можно поинтересоваться, а перевод 2 части фильма какого качества?
[Профиль] [ЛС]

sanja_180 ®

Стаж: 6 лет 6 месяцев

Сообщений: 26

Пост Пост: #3 от 07-Фев-2013 13:08 (спустя 1 день 2 часа)

[Цитировать]

40471Здравствуйте, можно поинтересоваться, а перевод 2 части фильма какого качества?
Одноголосный закадровый.
[Профиль] [ЛС]
Показать сообщения:    
Ответить на тему

Текущее время: Сегодня 07:21

Часовой пояс: GMT + 4



Вы не можете начинать темы
Вы не можете отвечать на сообщения
Вы не можете редактировать свои сообщения
Вы не можете удалять свои сообщения
Вы не можете голосовать в опросах
Вы не можете прикреплять файлы к сообщениям
Вы не можете скачивать файлы