Код доступа «София» / Sofia / Assassin's Bullet (Айзек Флорентайн / Isaac Florentine) [2012, США, боевик, триллер, BDRip-AVC] MVO + Sub (Rus, Eng)

Ответить на тему
 
Автор Сообщение

user ®

Стаж: 7 лет 7 месяцев

Сообщений: 20008

Пост Пост: #1 от 01-Окт-2012 12:01

[Цитировать]

Код доступа «София» / Sofia / Assassin's Bullet
Страна: США
Студия: Mutressa Movies, Sofia Productions
Жанр: боевик, триллер, драма
Год выпуска: 2012
Продолжительность: 01:31:17
Перевод: Профессиональный (многоголосый закадровый) [Blu-Ray Rus]
Режиссер: Айзек Флорентайн / Isaac Florentine
В ролях: Кристиан Слэйтер, Дональд Сазерленд, Элика Портной, Тимоти Сполл, Ивайло Герасков, Иван Коцев, Васил Михайлов, Башар Рахаль, Антоанета Ерданова
Описание: В болгарской столице Софии происходят странные и зловещие события. Криминальные группировки города стали мишенью некоего загадочного убийцы. Охотник невероятно ловок и тщательно экипирован, он беспощаден и неуловим. Что это — месть? Разборки конкурентов? Банальное ограбление? Найти разгадку берется детектив Роберт, которому предстоит опросить множество людей, посетить огромное количество мест, попасть в безвыходную ситуацию и оказаться на волоске от смерти, но все же раскрыть тайну Софии.

Релиз: fanatus
Качество видео: BDRip (AVC)
Исходник: Blu-Ray [Rus]
Контейнер: MKV
Видео: MPEG-4 AVC, 1886 kbps , 912x512, 16:9, 23.976 fps, 0.168 bit/pixel
Аудио: русский (AC3, 6 ch, 48 kHz, 384 kbps)
Cубтитры: русские, английские
Формат субтитров: softsub (SRT)
Главы: есть

MediaInfo

General
Unique ID : 224182795352314094717482176466840923026 (0xA8A8092E069137F28836F98BECEF2B92)
Complete name : D:\Kod.dostupa.Sofija.2012.x264.BDRip.(AVC).fanatus.mkv
Format : Matroska
Format version : Version 2
File size : 1.45 GiB
Duration : 1h 31mn
Overall bit rate : 2 271 Kbps
Movie name : Assassin's Bullet (2012) - fanatus
Encoded date : UTC 2012-09-23 01:28:33
Writing application : mkvmerge v3.4.0 ('Rapunzel') сборка от May 15 2010 09:38:20
Writing library : libebml v0.8.0 + libmatroska v0.9.0
Video
ID : 1
Format : AVC
Format/Info : Advanced Video Codec
Format profile : High@L4.1
Format settings, CABAC : Yes
Format settings, ReFrames : 11 frames
Codec ID : V_MPEG4/ISO/AVC
Duration : 1h 31mn
Bit rate : 1 886 Kbps
Width : 912 pixels
Height : 512 pixels
Display aspect ratio : 16:9
Frame rate : 23.976 fps
Color space : YUV
Chroma subsampling : 4:2:0
Bit depth : 8 bits
Scan type : Progressive
Bits/(Pixel*Frame) : 0.168
Stream size : 1.17 GiB (81%)
Title : Assassin's Bullet (2012)
Writing library : x264 core 125 r2208 d9d2288
Encoding settings : cabac=1 / ref=11 / deblock=1:-3:-3 / analyse=0x3:0x133 / me=tesa / subme=11 / psy=1 / psy_rd=1.00:0.05 / mixed_ref=1 / me_range=32 / chroma_me=1 / trellis=2 / 8x8dct=1 / cqm=0 / deadzone=21,11 / fast_pskip=0 / chroma_qp_offset=-3 / threads=16 / lookahead_threads=2 / sliced_threads=0 / nr=0 / decimate=0 / interlaced=0 / bluray_compat=0 / constrained_intra=0 / bframes=11 / b_pyramid=2 / b_adapt=2 / b_bias=0 / direct=3 / weightb=1 / open_gop=0 / weightp=2 / keyint=240 / keyint_min=23 / scenecut=40 / intra_refresh=0 / rc_lookahead=100 / rc=2pass / mbtree=1 / bitrate=1886 / ratetol=1.0 / qcomp=0.60 / qpmin=0 / qpmax=69 / qpstep=4 / cplxblur=20.0 / qblur=0.5 / ip_ratio=1.40 / aq=1:0.90 / zones=124101,131313,q=40
Language : English
Default : Yes
Forced : No
Audio
ID : 2
Format : AC-3
Format/Info : Audio Coding 3
Mode extension : CM (complete main)
Format settings, Endianness : Big
Codec ID : A_AC3
Duration : 1h 31mn
Bit rate mode : Constant
Bit rate : 384 Kbps
Channel(s) : 6 channels
Channel positions : Front: L C R, Side: L R, LFE
Sampling rate : 48.0 KHz
Bit depth : 16 bits
Compression mode : Lossy
Stream size : 251 MiB (17%)
Title : MVO
Language : Russian
Default : Yes
Forced : No
Text #1
ID : 3
Format : UTF-8
Codec ID : S_TEXT/UTF8
Codec ID/Info : UTF-8 Plain Text
Language : Russian
Default : No
Forced : No
Text #2
ID : 4
Format : UTF-8
Codec ID : S_TEXT/UTF8
Codec ID/Info : UTF-8 Plain Text
Language : English
Default : No
Forced : No
Menu
00:00:00.000 : en:Chapter 01
00:04:26.724 : en:Chapter 02
00:10:18.826 : en:Chapter 03
00:15:57.581 : en:Chapter 04
00:19:42.055 : en:Chapter 05
00:24:49.237 : en:Chapter 06
00:28:30.834 : en:Chapter 07
00:35:23.454 : en:Chapter 08
00:44:01.263 : en:Chapter 09
00:49:54.157 : en:Chapter 10
00:55:36.583 : en:Chapter 11
01:01:49.706 : en:Chapter 12
01:10:45.115 : en:Chapter 13
01:15:26.563 : en:Chapter 14
01:20:57.769 : en:Chapter 15
01:26:06.870 : en:Chapter 16
01:31:16.804 : en:Chapter 17

x264 [info]

---[NoImage] raw [info]: 912x512p 1:1 @ 24000/1001 fps (cfr)
---[NoImage] x264 [info]: using SAR=1/1
---[NoImage] x264 [info]: using cpu capabilities: MMX2 SSE2Fast FastShuffle SSEMisalign LZCNT
---[NoImage] x264 [info]: profile High, level 4.1
---[NoImage]
---[NoImage] x264 [info]: frame I:1023 Avg QP:15.16 size: 72772
---[NoImage] x264 [info]: frame P:30127 Avg QP:19.68 size: 22350
---[NoImage] x264 [info]: frame B:100164 Avg QP:22.70 size: 5422
---[NoImage] x264 [info]: consecutive B-frames: 3.1% 3.7% 10.7% 15.4% 14.5% 45.8% 2.8% 1.6% 1.1% 0.3% 0.4% 0.6%
---[NoImage] x264 [info]: mb I I16..4: 10.5% 64.0% 25.6%
---[NoImage] x264 [info]: mb P I16..4: 1.6% 8.5% 1.2% P16..4: 32.8% 34.6% 11.9% 2.3% 0.3% skip: 6.9%
---[NoImage] x264 [info]: mb B I16..4: 0.1% 0.8% 0.1% B16..8: 35.0% 17.2% 2.5% direct: 3.6% skip:40.8% L0:42.7% L1:46.9% BI:10.4%
---[NoImage] x264 [info]: 8x8 transform intra:73.9% inter:63.7%
---[NoImage] x264 [info]: direct mvs spatial:95.0% temporal:5.0%
---[NoImage] x264 [info]: coded y,uvDC,uvAC intra: 82.0% 83.7% 62.5% inter: 18.6% 22.7% 11.2%
---[NoImage] x264 [info]: i16 v,h,dc,p: 32% 11% 3% 54%
---[NoImage] x264 [info]: i8 v,h,dc,ddl,ddr,vr,hd,vl,hu: 8% 7% 6% 10% 15% 14% 14% 13% 13%
---[NoImage] x264 [info]: i4 v,h,dc,ddl,ddr,vr,hd,vl,hu: 11% 9% 5% 9% 15% 14% 13% 11% 12%
---[NoImage] x264 [info]: i8c dc,h,v,p: 40% 21% 20% 20%
---[NoImage] x264 [info]: Weighted P-Frames: Y:4.3% UV:2.6%
---[NoImage] x264 [info]: ref P L0: 53.8% 11.7% 15.8% 5.2% 3.9% 2.7% 2.3% 1.2% 1.1% 1.0% 1.0% 0.2% 0.0%
---[NoImage] x264 [info]: ref B L0: 82.3% 9.2% 3.8% 1.6% 1.0% 0.8% 0.6% 0.3% 0.2% 0.1%
---[NoImage] x264 [info]: ref B L1: 94.4% 5.6%
---[NoImage] x264 [info]: kb/s:1885.56
---[NoImage] encoded 131314 frames, 5.10 fps, 1885.56 kb/s

Скриншот c названием фильма

Скачать

Скачать торрент!

Как скачивать? · Что такое торрент? · Рейтинг и ограничения

Сайт не распространяет и не хранит электронные версии произведений, а лишь предоставляет доступ к создаваемому пользователями каталогу ссылок на торрент-файлы, которые содержат только списки хеш-сумм

[Профиль] [ЛС]
Показать сообщения:    
Ответить на тему

Текущее время: Сегодня 00:42

Часовой пояс: GMT + 4



Вы не можете начинать темы
Вы не можете отвечать на сообщения
Вы не можете редактировать свои сообщения
Вы не можете удалять свои сообщения
Вы не можете голосовать в опросах
Вы не можете прикреплять файлы к сообщениям
Вы не можете скачивать файлы