Лужайка / The Green (Стивен Уиллифорд / Steven Williford) [2011 г., драма, DVDRip] VO

Ответить на тему
 
Автор Сообщение

user ®

Стаж: 7 лет 7 месяцев

Сообщений: 20008

Пост Пост: #1 от 01-Окт-2012 12:01

[Цитировать]

Лужайка / The Green
Страна: США
Жанр: Драма
Год выпуска: 2011
Продолжительность: 01:31:21
Перевод: Одноголосый закадровый (Озвучка Василий Кошкин)
Режиссер: Стивен Уиллифорд / Steven Williford
В ролях: Джулия Ормонд / Julia Ormond, Джейсон Батлер Харнер / Jason Butler Harner, Cheyenne Jackson / Чейен Джексон, Иллиана Даглас / Illeana Douglas и др.
Описание: Майкл меняет шумный Нью-Йорк на пригород Коннектикута, чтобы работать в местной школе.
Но идиллия малоэтажной Америки в одно мгновение рушится, после того, как Майкл получает обвинение в «непристойном поведении».
И теперь весь город с осуждением ополчается на него...
Качество видео: DVDRip
Формат видео: AVI
Видео: XviD; 640x256; 23,97 fps; ~958 kbps; 0,244 bit/pixel
Аудио: MPEG Audio Layer 3; 48kHz; Stereo; 128 kbps, CBR
СЭМПЛ

MediaInfo

Общее
Полное имя : The Green (2011) K_I.avi
Формат : AVI
Формат/Информация : Audio Video Interleave
Размер файла : 716 Мбайт
Продолжительность : 1 ч. 31 м.
Общий поток : 1095 Кбит/сек
Видео
Идентификатор : 0
Формат : MPEG-4 Visual
Профиль формата : Advanced Simple@L5
Параметр BVOP формата : Нет
Параметр QPel формата : Нет
Параметр GMC формата : Без точки перехода
Параметр матрицы формата : Default (H.263)
Идентификатор кодека : XVID
Идентификатор кодека/Подсказка : XviD
Продолжительность : 1 ч. 31 м.
Битрейт : 958 Кбит/сек
Ширина : 640 пикселей
Высота : 256 пикселей
Соотношение сторон : 2,500
Частота кадров : 23,976 кадра/сек
Цветовое пространство : YUV
Субдискретизация насыщенности : 4:2:0
Битовая глубина : 8 бит
Тип развёртки : Прогрессивная
Метод сжатия : С потерями
Бит/(Пиксели*Кадры) : 0.244
Размер потока : 626 Мбайт (87%)
Библиотека кодирования : XviD 62
Аудио
Идентификатор : 1
Формат : MPEG Audio
Версия формата : Version 1
Профиль формата : Layer 3
Идентификатор кодека : 55
Идентификатор кодека/Подсказка : MP3
Продолжительность : 1 ч. 31 м.
Вид битрейта : Постоянный
Битрейт : 128 Кбит/сек
Каналы : 2 канала
Частота : 48,0 КГц
Метод сжатия : С потерями
Размер потока : 83,6 Мбайт (12%)
Выравнивание : Разделение по промежуткам
Продолжительность промежутка : 42 мс. (1,01 видеокадр)

Скриншот с названием фильма

Скриншоты



Скачать

Скачать торрент!

Как скачивать? · Что такое торрент? · Рейтинг и ограничения

Сайт не распространяет и не хранит электронные версии произведений, а лишь предоставляет доступ к создаваемому пользователями каталогу ссылок на торрент-файлы, которые содержат только списки хеш-сумм

[Профиль] [ЛС]
Показать сообщения:    
Ответить на тему

Текущее время: Сегодня 07:52

Часовой пояс: GMT + 4



Вы не можете начинать темы
Вы не можете отвечать на сообщения
Вы не можете редактировать свои сообщения
Вы не можете удалять свои сообщения
Вы не можете голосовать в опросах
Вы не можете прикреплять файлы к сообщениям
Вы не можете скачивать файлы