Неприкасаемые / 1+1 / Intouchables (Оливье Накаш / Olivier Nakache, Эрик Толедано / Eric Toledano) [2011 г., драма, комедия, HDRip] Dub

Ответить на тему
 
Автор Сообщение

user ®

Стаж: 7 лет 7 месяцев

Сообщений: 20008

Пост Пост: #1 от 01-Окт-2012 12:01

[Цитировать]

НеприкасаемыеIntouchables Год выпуска: 2011
Страна: Франция
Жанр: драма, комедия
Продолжительность: 01:52:02
Перевод: профессиональный полное дублирование R5
Субтитры: нет-Режиссер: Оливье Накаш / Эрик Толедано-В ролях:
Франсуа Клюзе, Анн Ле Ни, Омар Си, Одри Флеро, Клотильд Молле, Альба Гайя Крагеде Беллуджи, Сирил Менди, Кристиан Амери, Грегуар Эстерманн, Жозефин де Мо, Доминик Дагьер, Франсуа Карон, Томас Соливерес, Дороти Бриер, Мари-Лор Дикуру, Эмили Каен, Сильвен Лазард, Жан Франсуа Кэйри, Йен Фенелон, Рено Барсе, Франсуа Бюрелу, Никки Марбо, Бенжамин Барош, Жером Повель, Антуан Лорен, Фабрис Мантенья-Описание:
Пострадав в результате несчастного случая, богатый аристократ Филипп нанимает в помощники человека, который менее всего подходит для этой работы, - молодого жителя предместья Дрисса, только что освободившегося из тюрьмы. Несмотря на то, что Филипп прикован к инвалидному креслу, Дриссу удается привнести в размеренную жизнь аристократа дух приключений.-
  • В основу фильма была положена реальная история французского бизнесмена и аристократа Филиппа Поццо ди Борго, который остался парализованным после несчастного случая 27 июля 1993 года.
  • На создание картины режиссёрский дуэт вдохновила увиденная ими в 2004 году документальная лента, в которой рассказывалось о том, как молодой житель предместья был нанят присматривать за парализованным инвалидом Филиппом Поццо ди Борго.
  • Сам Филипп Поццо ди Борго рассказал о своей истории в вышедшей в 2001 году книге «Второй шанс», которая также послужила источником для сценария картины.
  • Первоначальным выбором на роль Филиппа Поццо ди Борго был Даниель Отой.
  • Перед началом работы над проектом режиссёры Оливье Накаш и Эрик Толедано лично посетили живущего в Марокко Филиппа Поццо ди Борго. Знакомство с ним и произнесенная им речь многократно увеличили их желание поставить фильм на основе его истории. Сам Филипп Поццо ди Борго дал им огромное количество информации и советов практически по каждой сцене картины.
  • Незадолго до начала съёмок Франсуа Клюзе лично посетил Филиппа Поццо ди Борго с тем, чтобы получить необходимую информацию для своей роли. В течение некоторого времени актёр наблюдал за его манерой движений, дыхания и речи.
  • На том, чтобы в первую очередь сделать фильм комедией, а не драмой усиленно настаивал сам Филипп Поццо ди Борго. Он не хотел, чтобы основанный на его жизни фильм стал историей сострадания и жалости.
  • Омар Си был первым приглашён на роль в фильме ещё до того, как был написан сценарий.
  • Несмотря на то, что ему пришлось играть совершенно обычного человека, Омар Си сбросил при подготовке к съёмкам почти пять килограммов веса. Актёр посчитал, что стандартный житель предместья с такой предысторией должен обладать более атлетическим телосложением, чем он.

Награды

Награды:
Сезар, 2012 год
Победитель: Лучший актер (Омар Си)
Номинации:
  • Лучший фильм
  • Лучший актер (Франсуа Клюзе)
  • Лучшая актриса второго плана (Анн Ле Ни)
  • Лучший режиссер (Оливье Накаш, Эрик Толедано)
  • Лучший сценарий
  • Лучшая работа оператора
  • Лучший звук
  • Лучший монтаж
-IMDB: 8.5/10 (37,518 votes) Top 250: 100
Кинопоиск: 8.905 (32 023) Top 250: 4--Сэмпл--Качество: HDRip
Формат: AVI
Видео кодек: XviD
Аудио кодек: AC3
Видео: 704x384 (1.83:1), 24.000 fps, XviD, ~1469 kbps avg, 0.23 bit/pixel
Аудио : 48 kHz, AC3 Dolby Digital, 3/2 (L,C,R,l,r) + LFE ch, ~384.00 kbps avg

Скриншоты




MI

General
Complete name : D:\Neprikasaemye.2011.HDRip.avi
Format : AVI
Format/Info : Audio Video Interleave
File size : 1.46 GiB
Duration : 1h 52mn
Overall bit rate : 1 863 Kbps
Writing application : VirtualDubMod 1.5.10.3 | www.virtualdub-fr.org || (build 2550/release)
Writing library : VirtualDubMod build 2550/release
Video
ID : 0
Format : MPEG-4 Visual
Format profile : Advanced Simple@L5
Format settings, BVOP : 1
Format settings, QPel : No
Format settings, GMC : No warppoints
Format settings, Matrix : Custom
Codec ID : XVID
Codec ID/Hint : XviD
Duration : 1h 52mn
Bit rate : 1 470 Kbps
Width : 704 pixels
Height : 384 pixels
Display aspect ratio : 16:9
Frame rate : 24.000 fps
Color space : YUV
Chroma subsampling : 4:2:0
Bit depth : 8 bits
Scan type : Progressive
Compression mode : Lossy
Bits/(Pixel*Frame) : 0.227
Stream size : 1.15 GiB (79%)
Writing library : XviD 64
Audio
ID : 1
Format : AC-3
Format/Info : Audio Coding 3
Mode extension : CM (complete main)
Codec ID : 2000
Duration : 1h 52mn
Bit rate mode : Constant
Bit rate : 384 Kbps
Channel(s) : 6 channels
Channel positions : Front: L C R, Side: L R, LFE
Sampling rate : 48.0 KHz
Bit depth : 16 bits
Compression mode : Lossy
Stream size : 308 MiB (21%)
Alignment : Split accross interleaves
Interleave, duration : 42 ms (1.00 video frame)
Interleave, preload duration : 500 ms
Скачать

Скачать торрент!

Как скачивать? · Что такое торрент? · Рейтинг и ограничения

Сайт не распространяет и не хранит электронные версии произведений, а лишь предоставляет доступ к создаваемому пользователями каталогу ссылок на торрент-файлы, которые содержат только списки хеш-сумм

[Профиль] [ЛС]
Показать сообщения:    
Ответить на тему

Текущее время: Сегодня 08:10

Часовой пояс: GMT + 4



Вы не можете начинать темы
Вы не можете отвечать на сообщения
Вы не можете редактировать свои сообщения
Вы не можете удалять свои сообщения
Вы не можете голосовать в опросах
Вы не можете прикреплять файлы к сообщениям
Вы не можете скачивать файлы