Хулиган с Белым Воротничком / The Rise & Fall of a White Collar Hooligan (Пол Тантер / Paul Tanter) [2012, Великобритания, Криминал, драма, HDRip] VO ( ViruseProject )

Ответить на тему
 
Автор Сообщение

user ®

Стаж: 7 лет 7 месяцев

Сообщений: 20008

Пост Пост: #1 от 01-Окт-2012 12:01

[Цитировать]

Хулиган с Белым Воротничком / The Rise & Fall of a White Collar Hooligan
Страна: Великобритания
Жанр: Криминал, драма
Год выпуска: 2012
Продолжительность: 01:21:06
Перевод: Одноголосый закадровый ViruseProject
Cубтитры: нет
Режиссер: Пол Тантер / Paul Tanter
В ролях: Ник Неверн, Саймон Филлипс, Рита Рамнани, Питер Баррет, Ребекка Фердинандо, Риччи Харнетт, Роланд Манукян, Билли Мюррей, Роберт Стоун и др.
Описание: Футбольный хулиган Майк Джейкобс отчаивается найти работу, когда неожиданно встречает своего старого друга Эдди Хила, который предлагает ему нестандартный заработок...



Релиз:
Озвучка: Kenum (Владислав Данилов)
Перевод: [Hino Jay Simpson] (Gent Studio)
Сведение звука: viruse (Виталий Емельянов)
смотреть СЕМПЛ озвучки на youtube
скачать СЕМПЛ с multi-up
Качество видео: HDRip
Формат видео: AVI
Видео: 720x304 (2.37:1), 23.976 fps, XviD MPEG-4 ~1964 kbps avg, 0.37 bit/pixel
Аудио: 48 kHz, AC3 Dolby Digital, 3/2 (L,C,R,l,r) + LFE ch, ~448 kbps

MediaInfo

D:\ОЗВУЧКА\ГОТОВОЕ\ФИЛЬМЫ\ХУЛИГАН С БЕЛЫМ ВОРОТНИЧКОМ\Huligan.s.belim.vorotni4kom.2012.ViruseProject.avi
General
Complete name : D:\ОЗВУЧКА\ГОТОВОЕ\ФИЛЬМЫ\ХУЛИГАН С БЕЛЫМ ВОРОТНИЧКОМ\Huligan.s.belim.vorotni4kom.2012.ViruseProject.avi
Format : AVI
Format/Info : Audio Video Interleave
File size : 1.37 GiB
Duration : 1h 21mn
Overall bit rate : 2 422 Kbps
Writing application : VirtualDubMod 1.5.10.2 (build 2540/release)
Writing library : VirtualDubMod build 2540/release
Video #0
ID : 0
Format : MPEG-4 Visual
Format profile : Advanced Simple@L5
Format settings, BVOP : 2
Format settings, QPel : No
Format settings, GMC : No warppoints
Format settings, Matrix : Default (H.263)
Muxing mode : Packed bitstream
Codec ID : XVID
Codec ID/Hint : XviD
Duration : 1h 21mn
Bit rate : 1 964 Kbps
Width : 720 pixels
Height : 304 pixels
Display aspect ratio : 2.35:1
Frame rate : 23.976 fps
Color space : YUV
Chroma subsampling : 4:2:0
Bit depth : 8 bits
Scan type : Progressive
Compression mode : Lossy
Bits/(Pixel*Frame) : 0.374
Stream size : 1.11 GiB (81%)
Writing library : XviD 64
Audio #1
ID : 1
Format : AC-3
Format/Info : Audio Coding 3
Mode extension : CM (complete main)
Format settings, Endianness : Big
Codec ID : 2000
Duration : 1h 21mn
Bit rate mode : Constant
Bit rate : 448 Kbps
Channel(s) : 6 channels
Channel positions : Front: L C R, Side: L R, LFE
Sampling rate : 48.0 KHz
Bit depth : 16 bits
Compression mode : Lossy
Stream size : 260 MiB (18%)
Alignment : Split accross interleaves
Interleave, duration : 42 ms (1.00 video frame)
Interleave, preload duration : 500 ms

Скриншот c названием фильма

Скриншоты

Скачать

Скачать торрент!

Как скачивать? · Что такое торрент? · Рейтинг и ограничения

Сайт не распространяет и не хранит электронные версии произведений, а лишь предоставляет доступ к создаваемому пользователями каталогу ссылок на торрент-файлы, которые содержат только списки хеш-сумм

[Профиль] [ЛС]

Dmitrij1976

Пол:

Стаж: 3 года 9 месяцев

Сообщений: 1

Пост Пост: #2 от 02-Мар-2013 23:02 (спустя 5 месяцев 1 день)

[Цитировать]

Неплохой фильм,во всяком случае один раз посмотреть можно точно.
[Профиль] [ЛС]
Показать сообщения:    
Ответить на тему

Текущее время: Сегодня 00:20

Часовой пояс: GMT + 4



Вы не можете начинать темы
Вы не можете отвечать на сообщения
Вы не можете редактировать свои сообщения
Вы не можете удалять свои сообщения
Вы не можете голосовать в опросах
Вы не можете прикреплять файлы к сообщениям
Вы не можете скачивать файлы