Верзила / The Tall Man (Паскаль Ложье / Pascal Laugier) [2012, США, Канада, Франция, триллер, драма, криминал, детектив, BDRip-AVC] DVO (den904 & DeadSno) + Original (Eng) + Sub (Rus,Eng)

Ответить на тему
 
Автор Сообщение

user ®

Стаж: 7 лет 7 месяцев

Сообщений: 20008

Пост Пост: #1 от 01-Окт-2012 12:01

[Цитировать]

Верзила / The Tall Man
Страна: США, Канада, Франция
Жанр: триллер, драма, криминал, детектив
Год выпуска: 2012
Продолжительность: 01:45:41
Перевод: Любительский (двухголосый закадровый) (den904 & DeadSno)
Оригинальная аудиодорожка: английский
Cубтитры: русские (полные, by janetta), английские (полные), английские (SDH - для слабослышащих)-Режиссер: Паскаль Ложье / Pascal Laugier
В ролях: Джессика Бил, Джоделль Ферланд, Уильям Б. Дэвис, Саманта Феррис, Коллин Вилер, Гарвин Санфорд, Джанет Райт, Ив Харлоу, Джон Манн, Тич Грант-Описание: Действие фильма разворачивается в американском городе Колд Рок, в котором на протяжении многих лет пропадают без вести дети. Местные легенды гласят, что их забирает к себе таинственный высокий человек.
Жительница Колд Рок, медсестра Джулия, не верит в эти легенды до тех пор, пока однажды ночью не обнаруживает, что кровать её сына пуста. Спустившись на первый этаж, она в ужасе видит, как некая тёмная фигура вместе с её сыном покидает дом. Руководствуясь инстинктом, Джулия бросается вслед за ними, пытаясь сделать всё возможное, чтобы вернуть сына, а заодно и получить ответы на вопросы: кто такой этот высокий человек? И что происходит с детьми?-СЭМПЛ
Тип релиза: BDRip-AVC
Контейнер: MKV
Видео: 1152x480p / 23.976 fps / 2.40:1 / High Profile 4.1 / AVC / ~ 2057 Kbps
Аудио 1: AC3 / 448 Kbps / 5.1 / 48 kHz / Russian / DVO - den904 & DeadSno
Аудио 2: AC3 / 448 Kbps / 5.1 / 48 kHz / English / Original
Формат субтитров: softsub (SRT)-

MediaInfo / x264 log

General
Complete name : The.Tall.Man.2012.BDRip-AVC.DVO.mkv
Format : Matroska
Format version : Version 2
File size : 2.18 GiB
Duration : 1h 45mn
Overall bit rate : 2 950 Kbps
Encoded date : UTC 2012-09-30 06:57:27
Writing application : mkvmerge v5.4.0 ('Piper') built on Mar 10 2012 13:34:39
Writing library : libebml v1.2.3 + libmatroska v1.3.0
Video
ID : 1
Format : AVC
Format/Info : Advanced Video Codec
Format profile : High@L4.1
Format settings, CABAC : Yes
Format settings, ReFrames : 12 frames
Codec ID : V_MPEG4/ISO/AVC
Duration : 1h 45mn
Bit rate : 2 057 Kbps
Width : 1 152 pixels
Height : 480 pixels
Display aspect ratio : 2.40:1
Frame rate : 23.976 fps
Color space : YUV
Chroma subsampling : 4:2:0
Bit depth : 8 bits
Scan type : Progressive
Bits/(Pixel*Frame) : 0.155
Stream size : 1.47 GiB (68%)
Title : The Tall Man 2012 BDRip-AVC
Writing library : x264 core 122 r2184 5c85e0a
Encoding settings : cabac=1 / ref=12 / deblock=1:-3:-3 / analyse=0x3:0x113 / me=umh / subme=11 / psy=1 / psy_rd=1.20:0.15 / mixed_ref=1 / me_range=24 / chroma_me=1 / trellis=2 / 8x8dct=1 / cqm=0 / deadzone=21,11 / fast_pskip=1 / chroma_qp_offset=-3 / threads=6 / sliced_threads=0 / nr=0 / decimate=1 / interlaced=0 / bluray_compat=0 / constrained_intra=0 / bframes=9 / b_pyramid=2 / b_adapt=2 / b_bias=0 / direct=3 / weightb=1 / open_gop=0 / weightp=2 / keyint=250 / keyint_min=23 / scenecut=40 / intra_refresh=0 / rc_lookahead=60 / rc=2pass / mbtree=1 / bitrate=2057 / ratetol=1.0 / qcomp=0.60 / qpmin=0 / qpmax=69 / qpstep=4 / cplxblur=20.0 / qblur=0.5 / ip_ratio=1.40 / aq=1:1.10
Default : Yes
Forced : No
Audio #1
ID : 2
Format : AC-3
Format/Info : Audio Coding 3
Mode extension : CM (complete main)
Format settings, Endianness : Big
Codec ID : A_AC3
Duration : 1h 45mn
Bit rate mode : Constant
Bit rate : 448 Kbps
Channel(s) : 6 channels
Channel positions : Front: L C R, Side: L R, LFE
Sampling rate : 48.0 KHz
Bit depth : 16 bits
Compression mode : Lossy
Stream size : 339 MiB (15%)
Title : RUS AC3 448 Kbps 6ch DVO den904 & DeadSno
Language : Russian
Default : Yes
Forced : No
Audio #2
ID : 3
Format : AC-3
Format/Info : Audio Coding 3
Mode extension : CM (complete main)
Format settings, Endianness : Big
Codec ID : A_AC3
Duration : 1h 45mn
Bit rate mode : Constant
Bit rate : 448 Kbps
Channel(s) : 6 channels
Channel positions : Front: L C R, Side: L R, LFE
Sampling rate : 48.0 KHz
Bit depth : 16 bits
Compression mode : Lossy
Stream size : 339 MiB (15%)
Title : ENG AC3 448 Kbps 6ch Original
Language : English
Default : No
Forced : No
Text #1
ID : 4
Format : UTF-8
Codec ID : S_TEXT/UTF8
Codec ID/Info : UTF-8 Plain Text
Title : RUS Subtitles Full by janetta
Language : Russian
Default : No
Forced : No
Text #2
ID : 5
Format : UTF-8
Codec ID : S_TEXT/UTF8
Codec ID/Info : UTF-8 Plain Text
Title : ENG Subtitles Full
Language : English
Default : No
Forced : No
Text #3
ID : 6
Format : UTF-8
Codec ID : S_TEXT/UTF8
Codec ID/Info : UTF-8 Plain Text
Title : ENG Subtitles SDH
Language : English
Default : No
Forced : No
Menu
00:00:00.000 : en:Chapter 01
00:10:40.431 : en:Chapter 02
00:18:55.092 : en:Chapter 03
00:27:42.494 : en:Chapter 04
00:33:16.619 : en:Chapter 05
00:44:46.892 : en:Chapter 06
00:58:29.422 : en:Chapter 07
01:06:48.879 : en:Chapter 08
01:16:53.650 : en:Chapter 09
01:24:57.717 : en:Chapter 10
01:34:33.250 : en:Chapter 11
01:40:11.964 : en:Chapter 12-x264 [info]: frame I:1167 Avg QP:13.32 size: 79290
x264 [info]: frame P:34486 Avg QP:16.03 size: 21887
x264 [info]: frame B:116387 Avg QP:17.69 size: 6694
x264 [info]: consecutive B-frames: 2.1% 4.3% 6.0% 32.0% 10.9% 34.3% 3.0% 5.6% 0.9% 0.9%

Скриншот с названием

Скриншоты


Скачать

Скачать торрент!

Как скачивать? · Что такое торрент? · Рейтинг и ограничения

Сайт не распространяет и не хранит электронные версии произведений, а лишь предоставляет доступ к создаваемому пользователями каталогу ссылок на торрент-файлы, которые содержат только списки хеш-сумм

[Профиль] [ЛС]
Показать сообщения:    
Ответить на тему

Текущее время: Сегодня 20:11

Часовой пояс: GMT + 4



Вы не можете начинать темы
Вы не можете отвечать на сообщения
Вы не можете редактировать свои сообщения
Вы не можете удалять свои сообщения
Вы не можете голосовать в опросах
Вы не можете прикреплять файлы к сообщениям
Вы не можете скачивать файлы