Хвост / Thale (Александр Нордаас / Aleksander Nordaas) [2012, Норвегия, Фэнтези, Триллер, Детектив, HDRip] VO

Ответить на тему
 
Автор Сообщение

user ®

Стаж: 7 лет 7 месяцев

Сообщений: 20008

Пост Пост: #1 от 01-Окт-2012 12:01

[Цитировать]

Хвост / Thale
Страна: Норвегия
Производство: Yesbox Productions
Жанр: Фэнтези, Триллер, Детектив
Год выпуска: 2012
Продолжительность: 01:17:46
Перевод: Одноголосый закадровый, любительский
Автор перевода: [den904]
Cубтитры: нет
Режиссер: Александр Нордаас / Aleksander Nordaas
Продюсер: Гудрун Гиддингс, Ларс Андреас Хеллебаст, Ларс Л. Марой ...
Дата мировой премьеры: 26 января 2012
В ролях: Мортен Андресен, Эрленд Норволд, Силье Райнамо, Джон Сигве Скард ...
Описание: Фильм основан на мифическом персонаже из норвежского фольклора, которого называют Хулдра. Согласно мифу Хулдра — прекрасная женщина, живущая в лесу, соблазняющая и убивающая мужчин. Она поет красивые песни, манит их к себе в глубь леса прекрасным телом, и затем убивает. Узнать ее можно лишь по наличию коровьего хвоста…
Сэмпл: http://multi-up.com/760659
Качество видео: HDRip
Формат видео: AVI
Видео: Xvid MPEG-4 Visual, 720 x 400 (1.800), 24.000 fps : 0.298 Bits/Pixel, 2059 Кбит/сек
Аудио: AC3 5.1, 448 Кбит/сек (6ch), 48,0 КГц : 16 bits

MediaInfo

Формат : AVI
Формат/Информация : Audio Video Interleave
Размер файла : 1,37 Гбайт
Продолжительность : 1 ч. 17 м.
Общий поток : 2516 Кбит/сек
Программа кодирования : VirtualDubMod 1.5.10.2 (build 2540/release)
Библиотека кодирования : VirtualDubMod build 2540/release
Видео
Идентификатор : 0
Формат : MPEG-4 Visual
Профиль формата : Advanced Simple@L5
Параметр BVOP формата : 2
Параметр QPel формата : Нет
Параметр GMC формата : Без точки перехода
Параметр матрицы формата : Default (MPEG)
Идентификатор кодека : XVID
Идентификатор кодека/Подсказка : XviD
Продолжительность : 1 ч. 17 м.
Битрейт : 2059 Кбит/сек
Ширина : 720 пикселей
Высота : 400 пикселей
Соотношение сторон : 16:9
Частота кадров : 24,000 кадра/сек
Цветовое пространство : YUV
Субдискретизация насыщенности : 4:2:0
Битовая глубина : 8 бит
Тип развёртки : Прогрессивная
Метод сжатия : С потерями
Бит/(Пиксели*Кадры) : 0.298
Размер потока : 1,12 Гбайт (82%)
Библиотека кодирования : XviD 1.2.1 (UTC 2008-12-04)
Аудио
Идентификатор : 1
Формат : AC-3
Формат/Информация : Audio Coding 3
Расширение режима : CM (complete main)
Параметр Endianness формата : Big
Идентификатор кодека : 2000
Продолжительность : 1 ч. 17 м.
Вид битрейта : Постоянный
Битрейт : 448 Кбит/сек
Каналы : 6 каналов
Расположение каналов : Front: L C R, Side: L R, LFE
Частота : 48,0 КГц
Битовая глубина : 16 бит
Метод сжатия : С потерями
Размер потока : 249 Мбайт (18%)
Выравнивание : Разделение по промежуткам
Продолжительность промежутка : 42 мс. (1,00 видеокадр)
Время предзагрузки промежутка : 500 мс.

Скриншот c названием фильма

Скриншоты

Скачать

Скачать торрент!

Как скачивать? · Что такое торрент? · Рейтинг и ограничения

Сайт не распространяет и не хранит электронные версии произведений, а лишь предоставляет доступ к создаваемому пользователями каталогу ссылок на торрент-файлы, которые содержат только списки хеш-сумм

[Профиль] [ЛС]
Показать сообщения:    
Ответить на тему

Текущее время: Сегодня 04:20

Часовой пояс: GMT + 4



Вы не можете начинать темы
Вы не можете отвечать на сообщения
Вы не можете редактировать свои сообщения
Вы не можете удалять свои сообщения
Вы не можете голосовать в опросах
Вы не можете прикреплять файлы к сообщениям
Вы не можете скачивать файлы