Жизнь другой / La vie d'une autre (Сильви Тестю / Sylvie Testud) [2012, Франция, Люксембург, Бельгия, драма, мелодрама, комедия, детектив, HDRip] DVO ( ViruseProject )

Ответить на тему
 
Автор Сообщение

user ®

Стаж: 7 лет 7 месяцев

Сообщений: 20008

Пост Пост: #1 от 01-Окт-2012 12:01

[Цитировать]

Жизнь другой / La vie d'une autre
Страна: Франция, Люксембург, Бельгия
Жанр: драма, мелодрама, комедия, детектив
Год выпуска: 2012
Продолжительность: 01:33:32
Перевод: Любительский (двухголосый закадровый) ViruseProject
Cубтитры: нет
Режиссер: Сильви Тестю / Sylvie Testud
В ролях: Жюльет Бинош, Матьё Кассовиц, Ор Атика, Даниель Лебрюн, Вернон Добчефф, Ив Дашари-Ле Беон, Франсуа Берлеан, Мари-Кристин Адам, Николас Карпентье, Альберт Спайнер и др.
Описание: 41-летняя Мари просыпается на свой день рождения, ничего не помня о своих последних пятнадцати годах жизни. Она обнаруживает себя матерью сына-школьника и преуспевающей бизнес-леди, но ее брак находится на грани распада. Теперь в ограниченное время ей предстоит понять происходящее и попытаться исправить ситуацию.


Релиз:
Озвучка:
*Агент Смит (Александр Харченко )
*Lalusha (Алла Блаер)
Перевод: kitmur
Сведение звука: viruse (Виталий Емельянов)
смотреть ТРЕЙЛЕР к фильму
смотреть СЕМПЛ озвучки на youtube
скачать СЕМПЛ с multi-up
Качество видео: HDRip
Формат видео: AVI
Видео: 688x304 (2.26:1), 25 fps, XviD MPEG-4 ~1781 kbps avg, 0.34 bit/pixel
Аудио: 48 kHz, AC3 Dolby Digital, 3/2 (L,C,R,l,r) + LFE ch, ~448 kbps

MediaInfo

D:\ОЗВУЧКА\ГОТОВОЕ\ФИЛЬМЫ\ЖИЗНЬ ДРУГОЙ\Gizn.Drugoi.2012.ViruseProject.avi
General
Complete name : D:\ОЗВУЧКА\ГОТОВОЕ\ФИЛЬМЫ\ЖИЗНЬ ДРУГОЙ\Gizn.Drugoi.2012.ViruseProject.avi
Format : AVI
Format/Info : Audio Video Interleave
File size : 1.46 GiB
Duration : 1h 33mn
Overall bit rate : 2 239 Kbps
Writing application : VirtualDubMod 1.5.10.2 (build 2540/release)
Writing library : VirtualDubMod build 2540/release
Video #0
ID : 0
Format : MPEG-4 Visual
Format profile : Advanced Simple@L5
Format settings, BVOP : 1
Format settings, QPel : No
Format settings, GMC : No warppoints
Format settings, Matrix : Default (MPEG)
Muxing mode : Packed bitstream
Codec ID : XVID
Codec ID/Hint : XviD
Duration : 1h 33mn
Bit rate : 1 781 Kbps
Width : 688 pixels
Height : 304 pixels
Display aspect ratio : 2.25:1
Frame rate : 25.000 fps
Color space : YUV
Chroma subsampling : 4:2:0
Bit depth : 8 bits
Scan type : Progressive
Compression mode : Lossy
Bits/(Pixel*Frame) : 0.341
Stream size : 1.16 GiB (80%)
Writing library : XviD 1.2.0.dev47 (UTC 2006-11-01)
Audio #1
ID : 1
Format : AC-3
Format/Info : Audio Coding 3
Mode extension : CM (complete main)
Format settings, Endianness : Big
Codec ID : 2000
Duration : 1h 33mn
Bit rate mode : Constant
Bit rate : 448 Kbps
Channel(s) : 6 channels
Channel positions : Front: L C R, Side: L R, LFE
Sampling rate : 48.0 KHz
Bit depth : 16 bits
Compression mode : Lossy
Stream size : 300 MiB (20%)
Alignment : Split accross interleaves
Interleave, duration : 40 ms (1.00 video frame)
Interleave, preload duration : 500 ms

Скриншот c названием фильма

Скриншоты

Скачать

Скачать торрент!

Как скачивать? · Что такое торрент? · Рейтинг и ограничения

Сайт не распространяет и не хранит электронные версии произведений, а лишь предоставляет доступ к создаваемому пользователями каталогу ссылок на торрент-файлы, которые содержат только списки хеш-сумм

[Профиль] [ЛС]
Показать сообщения:    
Ответить на тему

Текущее время: Сегодня 10:07

Часовой пояс: GMT + 4



Вы не можете начинать темы
Вы не можете отвечать на сообщения
Вы не можете редактировать свои сообщения
Вы не можете удалять свои сообщения
Вы не можете голосовать в опросах
Вы не можете прикреплять файлы к сообщениям
Вы не можете скачивать файлы