Голая бухта / Vuosaari (Аку Лоухимиес / Aku Louhimies) [2012, Финляндия, драма, HDRip] DVO ( ViruseProject )

Ответить на тему
 
Автор Сообщение

user ®

Стаж: 7 лет 7 месяцев

Сообщений: 20008

Пост Пост: #1 от 23-Авг-2012 09:48

[Цитировать]

Голая бухта / Vuosaari
Страна: Финляндия
Жанр: драма
Год выпуска: 2012
Продолжительность: 02:03:29
Перевод: Любительский (двухголосый закадровый) ViruseProject
Cубтитры: нет
Режиссер: Аку Лоухимиес / Aku Louhimies
В ролях: Альма Пёвсти, Айно Лоухимиес, Шон Пертуи, Deogracias Masomi, Лаура Бирн, Конста Мякеля, Аманда Пилке, Танели Мякеля, Яспер Пяякконен, Эмели Лоухимиес, Екатерина Новосёлова, Топи Тарвайнен, Мери Ненонен и др.
Описание: Голая бухта — картина, о том, как мы хотим быть увиденными и осязаемыми. Действие фильма разворачивается в Вуосаари, восточном районе Хельсинки, и повествует о социальном государстве в эпоху индивидуальности и реалити-шоу. Две недели жизни современного Вуосаари демонстрируют жажду людей к жизни и любви. Судьбы людей в фильме порой абсурдны, но они трогательны, полны тепла и юмора, а иногда и непроглядной темноты.
Голая бухта, поставленная режиссером Аку Лоухимиесом, одного из ярчайших представителей финского кинематографа последнего десятилетия, представляет собой хитросплетение нескольких историй. Аку Лоухимиес давно снискал признание на сцене международных кинофестивалей. Его предыдущие работы — "Неприкаянный / Levottomat " (2000) и "Город отмороженных / Valkoinen kaupunki" (2005) — создают любопытный фон для "Голой бухты". Обе картины — это истории арктической души. "Голая бухта" полна энергии и эмоционального заряда. Она реалистична и поэтична, развлекательна и в то же время занимательна.


Релиз:
Озвучка:
*Агент Смит (Александр Харченко )
*Lalusha (Алла Блаер)
Перевод: Дмитрий Александрович aka kitmur
Сведение звука: viruse (Виталий Емельянов)
смотреть ТРЕЙЛЕР к фильму
смотреть СЕМПЛ озвучки на youtube
скачать СЕМПЛ с multi-up
Качество видео: HDRip
Формат видео: AVI
Видео: 720x304 (2.37:1), 24 fps, XviD MPEG-4 ~1168 kbps avg, 0.22 bit/pixel
Аудио: 48 kHz, AC3 Dolby Digital, 3/2 (L,C,R,l,r) + LFE ch, ~448 kbps

MediaInfo

D:\ОЗВУЧКА\ГОТОВОЕ\ФИЛЬМЫ\ГОЛАЯ БУХТА\Golay.Buhta.2012.ViruseProject.avi
General
Complete name : D:\ОЗВУЧКА\ГОТОВОЕ\ФИЛЬМЫ\ГОЛАЯ БУХТА\Golay.Buhta.2012.ViruseProject.avi
Format : AVI
Format/Info : Audio Video Interleave
File size : 1.40 GiB
Duration : 2h 3mn
Overall bit rate : 1 626 Kbps
Writing application : VirtualDubMod 1.5.10.2 (build 2540/release)
Writing library : VirtualDubMod build 2540/release
Video #0
ID : 0
Format : MPEG-4 Visual
Format profile : Advanced Simple@L5
Format settings, BVOP : 2
Format settings, QPel : No
Format settings, GMC : No warppoints
Format settings, Matrix : Default (H.263)
Muxing mode : Packed bitstream
Codec ID : XVID
Codec ID/Hint : XviD
Duration : 2h 3mn
Bit rate : 1 168 Kbps
Width : 720 pixels
Height : 304 pixels
Display aspect ratio : 2.35:1
Frame rate : 24.000 fps
Color space : YUV
Chroma subsampling : 4:2:0
Bit depth : 8 bits
Scan type : Progressive
Compression mode : Lossy
Bits/(Pixel*Frame) : 0.222
Stream size : 1.01 GiB (72%)
Writing library : XviD 64
Audio #1
ID : 1
Format : AC-3
Format/Info : Audio Coding 3
Mode extension : CM (complete main)
Format settings, Endianness : Big
Codec ID : 2000
Duration : 2h 3mn
Bit rate mode : Constant
Bit rate : 448 Kbps
Channel(s) : 6 channels
Channel positions : Front: L C R, Side: L R, LFE
Sampling rate : 48.0 KHz
Bit depth : 16 bits
Compression mode : Lossy
Stream size : 396 MiB (28%)
Alignment : Split accross interleaves
Interleave, duration : 42 ms (1.00 video frame)
Interleave, preload duration : 500 ms

Скриншоты

Скачать

Скачать торрент!

Как скачивать? · Что такое торрент? · Рейтинг и ограничения

Сайт не распространяет и не хранит электронные версии произведений, а лишь предоставляет доступ к создаваемому пользователями каталогу ссылок на торрент-файлы, которые содержат только списки хеш-сумм

[Профиль] [ЛС]
Показать сообщения:    
Ответить на тему

Текущее время: Сегодня 04:18

Часовой пояс: GMT + 4



Вы не можете начинать темы
Вы не можете отвечать на сообщения
Вы не можете редактировать свои сообщения
Вы не можете удалять свои сообщения
Вы не можете голосовать в опросах
Вы не можете прикреплять файлы к сообщениям
Вы не можете скачивать файлы